<?xml version="1.0" standalone="no"?>
<<<<<<< HEAD
<!DOCTYPE svg PUBLIC "-//W3C//DTD SVG 1.1//EN" "http://www.w3.org/Graphics/SVG/1.1/DTD/svg11.dtd">
<svg xmlns="http://www.w3.org/2000/svg">
<metadata>Copyright (C) 2024 by original authors @ fontello.com</metadata>
<defs>
<font id="h5p-core-28" horiz-adv-x="1000" >
<font-face font-family="h5p-core-28" font-weight="400" font-stretch="normal" units-per-em="1000" ascent="850" descent="-150" />
<missing-glyph horiz-adv-x="1000" />
<glyph glyph-name="arrow-down" unicode="&#xe565;" d="M229 444h543l-272-271z" horiz-adv-x="1000" />

<glyph glyph-name="arrow-left" unicode="&#xe566;" d="M372 53v511l256-256z" horiz-adv-x="1000" />

<glyph glyph-name="colapse" unicode="&#xe58e;" d="M500 463l250-250-59-59-191 191-191-191-59 59z" horiz-adv-x="1000" />

<glyph glyph-name="expand" unicode="&#xe58f;" d="M691 463l59-59-250-250-250 250 59 59 191-192z" horiz-adv-x="1000" />

<glyph glyph-name="move" unicode="&#xe600;" d="M378 725h69v-70h-69v70z m175 0h69v-70h-69v70z m-175-153h69v-69h-69v69z m175 0h69v-69h-69v69z m-175-153h69v-69h-69v69z m175 0h69v-69h-69v69z m-175-152h69v-70h-69v70z m175 0h69v-70h-69v70z m-175-153h69v-69h-69v69z m175 0h69v-69h-69v69z m-175-153h69v-69h-69v69z m175 0h69v-69h-69v69z" horiz-adv-x="1000" />

<glyph glyph-name="check-mark" unicode="&#xe601;" d="M444 278l-114 114-83-83 197-197 309 310-82 83z" horiz-adv-x="1000" />

<glyph glyph-name="drag-text" unicode="&#xe602;" d="M649 272c-11 15-26 24-46 24-21 0-37-13-47-23h-2c1 10 0 23 0 30v50h-49v-229h40l8 20h3c11-20 26-22 46-22 19 0 35 8 47 23s17 36 17 64c0 27-6 48-17 63z m-38-100c-5-9-13-13-22-13-12 0-21 4-26 11s-9 21-9 39v5c0 16 4 27 9 34 5 7 14 10 25 10 10 0 17-4 23-12s8-21 8-37c0-16-2-29-8-37z m164-13c9 0 17 1 24 3s13 6 22 11v-39c-9-4-14-8-22-9-7-2-17-3-28-3-52 0-78 28-78 85 0 29 7 50 21 65s35 22 61 22c19 0 36-3 52-11l-14-35c-7 3-13 5-20 7-6 2-12 3-18 3-24 0-35-17-35-51-1-32 11-48 35-48z m-342 122c-12 10-25 15-47 15-24 0-45-5-64-15l15-31c18 8 32 12 46 12 17 0 24-8 24-25v-7l-27-1c-25-1-43-6-55-14-12-9-18-22-18-39 0-17 4-30 13-40 10-9 22-14 38-14 13 0 24 1 32 5 8 4 16 8 24 18h1l9-19h22v111c0 20-1 35-13 44z m-26-91c0-10-2-18-8-24s-13-10-24-10c-15 0-22 7-22 20 0 9 4 15 10 20s15 6 28 7l16 0v-13z m476 200c8 0 14-7 14-14v-285c0-7-6-14-14-14h-607c-8 0-14 7-14 14v285c0 7 6 14 14 14h607z m0 36h-607c-28 0-50-23-50-50v-285c0-27 22-50 50-50h607c28 0 50 23 50 50v285c0 27-22 50-50 50v0z m-637-254h-64v32h64v-32z m-115 0h-35c-16 0-29 13-29 29v9h32v-6h32v-32z m-32 102h-32v64h32v-64z m0 128h-32v64h32v-64z m644 11h-32v63h32v-63z m-644 117h-32v17c0 16 13 28 29 28h27v-32h-24v-13z m612 13h-24v32h27c16 0 29-12 29-28v-17h-32v13z m-77 0h-63v32h63v-32z m-127 0h-64v32h64v-32z m-128 0h-64v32h64v-32z m-128 0h-64v32h64v-32z" horiz-adv-x="1000" />

<glyph glyph-name="mark-the-words" unicode="&#xe603;" d="M518 338c-14 0-23-4-29-13s-10-23-10-43v-6c0-23 3-39 9-49 7-10 17-15 32-15 12 0 21 6 28 17s10 26 10 47c0 21-4 36-11 47-7 10-16 15-29 15z m113 184h-244c-41 0-76-34-76-76v-263c0-42 35-89 76-89h244c42 0 75 34 75 76v276c0 42-33 76-75 76z m-36-328c-15-19-35-28-60-28-24 0-44 3-58 28h-4l-9-25h-47v290h62v-64c0-9-3-23-4-36h2c14 13 33 28 60 28 25 0 44-11 58-30 15-20 22-47 22-81 0-35-8-63-22-82z m259 21c11 0 20 1 30 4 9 3 15 8 27 14v-49c-12-6-18-10-27-12s-21-3-35-3c-65 0-98 35-98 107 0 35 9 62 27 81s43 28 76 28c24 0 45-5 65-14l-17-44c-9 3-17 6-25 8-8 3-16 4-23 4-30 0-45-21-45-63 0-41 15-61 45-61z m-615 167c-15 12-31 18-59 18-29 0-56-6-80-19l19-38c23 10 41 15 57 15 22 0 31-11 31-32v-9l-34-1c-31-1-53-7-69-18-15-10-22-27-22-49 0-21 5-37 17-49 11-11 27-18 47-18 16 0 30 2 40 6s20 12 29 23h2l11-23h27v138c0 25-1 43-16 56z m-32-115c0-13-2-23-10-31-8-7-17-11-30-11-18 0-27 8-27 24 0 11 4 19 12 25s19 8 35 9l20 1v-17z" horiz-adv-x="1000" />

<glyph glyph-name="multiple-choice" unicode="&#xe604;" d="M278 588l-125-125c-2-3-6-4-10-4s-7 1-10 4l-72 72c-2 3-4 6-4 10s2 7 4 10l20 20c3 2 6 4 10 4s7-2 10-4l42-43 95 95c3 3 7 4 10 4s7-1 10-4l20-20c2-2 4-6 4-9s-2-8-4-10z m-34-343l-21-21c-3-3-7-4-10-4-4 0-8 1-11 4l-45 45-45-45c-3-3-6-4-10-4-4 0-8 1-10 4l-21 21c-3 3-5 7-5 10 0 4 2 8 5 11l45 45-45 45c-3 2-5 6-5 10 0 4 2 8 5 10l21 21c2 3 6 4 10 4 4 0 7-1 10-4l45-45 45 45c3 3 7 4 10 4 4 0 8-1 11-4l20-21c3-3 5-6 5-10 0-4-2-8-5-10l-45-45 45-45c3-3 5-7 5-10 0-4-2-8-4-11z m0-234l-21-21c-3-3-7-5-10-5-4 0-8 2-11 5l-45 45-45-45c-2-3-6-5-10-5-4 0-8 2-10 5l-21 21c-3 3-5 6-5 10 0 4 2 8 5 10l45 45-45 45c-3 3-5 7-5 11 0 4 2 7 5 10l21 21c2 3 6 4 10 4 4 0 7-1 10-4l45-45 45 45c3 3 7 4 10 4 4 0 8-1 11-4l20-21c3-3 5-7 5-10 0-4-2-8-5-11l-45-44 45-45c3-3 5-7 5-11 0-4-2-7-4-10z m699 499c0-20-16-36-36-36h-567c-20 0-36 16-36 36v25c0 20 16 36 36 36h567c20 0 36-16 36-36v-25z m0-221c0-19-16-35-36-35h-567c-20 0-36 16-36 35v26c0 20 16 36 36 36h567c20 0 36-16 36-36v-26z m0-220c0-20-16-36-36-36h-567c-20 0-36 16-36 36v25c0 20 16 36 36 36h567c20 0 36-16 36-36v-25z" horiz-adv-x="1000" />

<glyph glyph-name="icon-warning" unicode="&#xe859;" d="M199 99l301 502 301-502-602 0 0 0z m95 53h412l-206 343-206-343z m206 26c8 0 14 3 20 8s7 11 7 19-2 14-7 19c-6 5-12 7-20 7s-14-2-19-7-8-12-8-19 2-14 8-19c5-5 11-8 19-8z m-27 80h54v132h-54v-132z" horiz-adv-x="1000" />

<glyph glyph-name="icon-link" unicode="&#xe85c;" d="M372 48c-44 0-88 17-123 51-67 68-67 179 0 247l42 42c9 9 23 9 32 0s10-24 0-33l-41-42c-24-23-38-56-38-90s14-65 38-91c23-26 55-37 90-37s65 14 91 37l42 42c9 9 23 9 32 0s9-23 0-33l-42-42c-35-35-79-51-123-51z m23 175c-6 0-11 2-16 6-9 10-9 24 0 33l212 211c9 10 23 10 32 0s9-23 0-32l-211-212c-5-4-12-6-17-6z m298 83c-7 0-12 3-16 7-10 9-10 23 0 33l41 41c24 24 38 56 38 91s-14 65-38 91c-23 25-55 37-90 37s-65-14-91-37l-42-42c-9-9-23-9-32 0s-9 23 0 32l42 42c67 68 179 68 246 0s67-179 0-246l-42-42c-4-4-11-7-16-7z" horiz-adv-x="1000" />

<glyph glyph-name="icon-upload" unicode="&#xe85d;" d="M484 645c9 9 23 9 32 0l155-154c9-10 10-25 0-35-9-10-24-10-33-1l-114 114v-311c0-14-11-25-24-25-13 0-24 11-24 25v311l-114-114c-9-9-24-9-33 1-9 10-9 25 0 35l155 154z m-262-363c13 0 24-11 24-24v-37c0-26 0-45 1-59 1-13 3-21 6-27 7-12 17-23 30-30 6-3 14-5 28-6 15-1 33-1 59-1h260c26 0 44 0 59 1 14 1 22 3 28 6 13 7 23 18 30 30 3 6 5 14 6 27 1 14 1 33 1 59v37c0 13 11 24 24 24s24-11 24-24v-38c0-25 0-45-2-62-1-17-4-32-11-46-12-22-30-40-51-51-14-7-29-10-46-11-16-1-36-1-61-1h-262c-25 0-45 0-61 1-17 1-32 4-46 11-21 11-39 29-51 51-7 14-10 29-11 46-1 17-1 37-1 62v38c0 13 10 24 23 24z" horiz-adv-x="1000" />

<glyph glyph-name="icon-edit" unicode="&#xe85e;" d="M754 486c6 1 13 2 20 5 10 5 18 13 23 23 3 7 4 14 5 20 0 6 0 14 0 22v26c0 8 0 16 0 22-1 6-2 13-5 20-5 10-13 18-23 23-7 3-14 4-20 5-6 0-14 0-22 0h-26c-8 0-16 0-22 0-6-1-13-2-20-5-10-5-18-13-23-23-3-7-5-14-5-20 0-4-1-9-1-14h-270c0 5-1 10-1 14 0 6-2 13-5 20-5 10-13 18-23 23-7 3-14 4-20 5-6 0-14 0-22 0 0 0 0 0 0 0h-25c-1 0-1 0-1 0-8 0-16 0-22 0-6-1-13-2-20-5-10-5-18-13-23-23-3-7-4-14-5-20 0-6 0-14 0-22 0 0 0 0 0-1v-25c0 0 0 0 0 0 0-8 0-16 0-22 1-6 2-13 5-20 5-10 13-18 23-23 7-3 14-4 20-5 4 0 9 0 14 0v-271c-5 0-10-1-14-1-6 0-13-2-20-5-10-5-18-13-23-23-3-7-4-14-5-20 0-6 0-14 0-22v-26c0-8 0-16 0-22 1-6 2-13 5-20 5-10 13-18 23-23 7-3 14-4 20-5 6 0 14 0 22 0h26c8 0 16 0 22 0 6 1 13 2 20 5 10 5 18 13 23 23 3 7 5 14 5 20 0 4 1 9 1 14h271c0-5 0-10 0-14 1-6 2-13 5-20 5-10 13-18 23-23 7-3 14-4 20-5 6 0 14 0 22 0h26c8 0 16 0 22 0 6 1 13 2 20 5 10 5 18 13 23 23 3 7 4 14 5 20 0 6 0 14 0 22v26c0 8 0 16 0 22-1 6-2 13-5 20-5 10-13 18-23 23-7 3-14 5-20 5-4 0-9 1-14 1v271c5 0 10 0 14 0z m-504 42c-2 0-3 0-4 0 0 0-1 0-1 0 0 0 0 0 0 0-2 1-3 3-5 5 0 0 0 0 0 0 0 0 0 0 0 1 0 1 0 2 0 4-1 4-1 9-1 18v25c0 10 0 15 1 19 0 2 0 3 0 4 0 0 0 1 0 1 0 0 0 0 0 0 1 2 3 4 5 5 0 0 0 0 0 0 0 0 1 0 1 0 1 0 2 0 4 0 4 1 10 1 19 1h25c9 0 14 0 18-1 2 0 4 0 4 0 1 0 1 0 1 0 0 0 0 0 0 0 2-1 4-3 5-5 0 0 0 0 0 0 0 0 0 0 0-1 0-1 0-2 1-4 0-4 0-9 0-19v-25c0-9 0-14 0-18-1-2-1-3-1-4 0 0 0-1 0-1s0 0 0 0c-1-2-3-4-5-5 0 0 0 0 0 0 0 0 0 0-1 0 0 0-2 0-4 0-4-1-9-1-18-1h-25c-9 0-15 0-19 1z m73-409c0-9 0-15-1-19 0-2 0-3 0-4 0 0 0-1 0-1 0 0 0 0 0 0-1-2-3-3-5-5 0 0 0 0 0 0 0 0 0 0-1 0-1 0-2 0-4 0-4-1-9-1-18-1h-25c-9 0-15 0-19 1-2 0-3 0-4 0 0 0-1 0-1 0 0 0 0 0 0 0-2 1-3 3-5 5 0 0 0 0 0 0 0 0 0 1 0 1 0 1 0 2 0 4-1 4-1 10-1 19v25c0 9 0 14 1 18 0 2 0 4 0 4 0 1 0 1 0 1 0 0 0 0 0 0 1 2 3 4 5 5 0 0 0 0 0 0 0 0 1 0 1 0 1 0 2 0 4 1 4 0 10 0 19 0h25c9 0 14 0 18 0 2-1 4-1 4-1 1 0 1 0 1 0s0 0 0 0c2-1 4-3 5-5 0 0 0 0 0 0 0 0 0 0 0-1 0 0 0-2 1-4 0-4 0-9 0-18v-25h0z m318 67c-3-7-4-14-5-20 0-4 0-9 0-14h-271c0 5-1 10-1 14 0 6-2 13-5 20-5 10-13 18-23 23-7 3-14 5-20 5-4 0-9 1-14 1v271c5 0 10 0 14 0 6 1 13 2 20 5 10 5 18 13 23 23 3 7 5 14 5 20 0 4 1 9 1 14h271c0-5 0-10 0-14 1-6 2-13 5-20 5-10 13-18 23-23 7-3 14-4 20-5 4 0 9 0 14 0v-271c-5 0-10-1-14-1-6 0-13-2-20-5-10-5-18-13-23-23z m109-13c2-1 3-1 4-1 0 0 1 0 1 0 0 0 0 0 0 0 2-1 4-3 5-5 0 0 0 0 0 0 0 0 0 0 0-1 0 0 0-2 0-4 1-4 1-9 1-18v-25c0-9 0-15-1-19 0-2 0-3 0-4 0 0 0-1 0-1v0 0c-1-2-3-3-5-5 0 0 0 0 0 0 0 0 0 0-1 0 0 0-2 0-4 0-4-1-9-1-18-1h-25c-9 0-15 0-19 1-2 0-3 0-4 0 0 0-1 0-1 0 0 0 0 0 0 0-2 1-3 3-5 5 0 0 0 0 0 0 0 0 0 1 0 1 0 1 0 2 0 4-1 4-1 10-1 19v25c0 9 0 14 1 18 0 2 0 4 0 4 0 1 0 1 0 1 0 0 0 0 0 0 1 2 3 4 5 5 0 0 0 0 0 0 0 0 0 0 0 0 1 0 1 0 1 0 1 0 2 0 4 1 4 0 10 0 19 0h24c10 0 15 0 19 0z m-19 354h-25c-9 0-14 0-18 1-2 0-3 0-4 0 0 0-1 0-1 0 0 0 0 0 0 0-2 1-4 3-5 5 0 0 0 0 0 0 0 0 0 1 0 1 0 1 0 2 0 4-1 4-1 10-1 19v24c0 10 0 15 1 19 0 2 0 3 0 4 0 0 0 1 0 1 0 0 0 0 0 0 1 2 3 4 5 5 0 0 0 0 0 0 0 0 0 0 1 0 1 0 2 0 4 0 4 1 9 1 18 1h25c10 0 15 0 19-1 2 0 3 0 4 0 0 0 1 0 1 0 0 0 0 0 0 0 2-1 4-3 5-5 0 0 0 0 0 0v0c0 0 0 0 0-1 0-1 0-2 0-4 1-4 1-9 1-19v-25c0-9 0-14-1-18 0-2 0-3 0-4 0 0 0-1 0-1s0 0 0 0c-1-2-3-4-5-5 0 0 0 0 0 0 0 0-1 0-1 0-1 0-2 0-4 0-4-1-9-1-19-1z" horiz-adv-x="1000" />

<glyph glyph-name="icon-delete" unicode="&#xe85f;" d="M570 165c20 0 34 14 34 34v171c0 20-14 34-34 34-20 0-35-14-35-34v-171c0-20 15-34 35-34z m200 394l0 0h-120c0 12 0 26 0 35 0 13-3 23-10 35-8 18-23 31-41 38-12 5-22 8-35 10-10 0-25 0-40 0h-50c-15 0-30 0-41 0-12-2-25-5-35-10-17-7-33-23-40-38-5-12-8-22-10-35 0-9 0-21 0-35h-121c-17 0-30-15-30-30 0-18 13-31 30-31h30v-304c0-25 0-43 3-60s5-33 12-46c10-22 28-40 51-52 15-8 30-10 47-13 16 0 36 0 61 0h136c25 0 45 0 60 3 18 2 33 5 48 12 22 13 40 30 53 53 7 15 10 30 12 45 3 15 3 36 3 61v301h30c17 0 30 13 30 31-2 15-15 30-33 30z m-362 30c0 8 3 10 3 13 2 5 7 10 12 12 3 0 5 3 13 3s20 0 38 0h50c18 0 28 0 38 0 7 0 10-3 12-3 5-2 10-7 13-12 0-3 2-5 2-13 0-7 0-16 0-30h-181c0 14 0 23 0 30l0 0z m274-392c0 0 0-43 0-56s-5-20-7-25c-5-10-15-20-25-25-5-3-13-5-25-5-13 0-31 0-58 0h-134c-25 0-42 0-58 0-12 0-20 2-25 5-12 5-20 15-25 25-2 5-5 10-5 25 0 13 0 30 0 56v301h362v-301h0z m-251-32c21 0 35 14 35 34v171c0 20-14 34-35 34s-34-14-34-34v-171c0-20 14-34 34-34z" horiz-adv-x="1000" />

<glyph glyph-name="arrow-up-circle" unicode="&#xe888;" d="M501 565c-145 0-258-118-254-263 0-123 87-227 204-250v209h-90c-14 0-14 9-9 18l136 168c4 9 13 9 22 4 0 0 5-4 5-4l136-168c9-9 5-18-9-18h-91v-209c141 32 227 168 195 309-22 117-127 199-245 204z" horiz-adv-x="1000" />

<glyph glyph-name="info-circle" unicode="&#xe889;" d="M500 563c-141 0-254-114-254-255s113-254 254-254 254 114 254 254v0c0 137-113 250-254 255z m-41-50h86v-68h-86v68z m127-382h-177v50h50v159h-50v50h136v-213h46l-5-46z" horiz-adv-x="1000" />

<glyph glyph-name="search" unicode="&#xe88a;" d="M751 110l-108 108c70 97 49 238-48 308s-238 43-308-54c-71-98-49-238 48-308 76-54 178-54 254 0l108-108c6-6 11-6 16 0 0 0 0 0 0 0l33 32c11 5 11 16 5 22 0 0 0 0 0 0z m-286 75c-87 0-157 71-157 157s70 157 157 157 157-70 157-157-71-157-157-157v0z" horiz-adv-x="1000" />

<glyph glyph-name="fullscreen" unicode="&#xe88c;" d="M349 451c5 6 0 6-6 6l-101 11c-5 6-11 0-11-6l11-106c0-6 6-6 6-6l101 101z m-73-61l62-62c5-6 11-6 16 0l23 22c5 6 5 12 0 17l-62 56-39-33z m482-40c5-5 5 0 5 6l12 106c0 6-6 12-12 12l-106-12c-6 0-6-5-6-5l107-107z m-62 73l-61-61c-6-6-6-12 0-17l22-23c6-5 11-5 17 0l61 62-39 39z m-33-274c-6-6 0-6 5-6l107-11c5 0 11 5 11 11l-17 101c0 6-6 6-6 6l-100-101z m67 67l-62 62c-5 5-11 5-17 0l-22-23c-6-5-6-11 0-17l62-61 39 39z m-482 34c-6 5-6 0-6-6l-11-107c0-5 6-11 11-11l107 11c5 0 5 6 5 6l-106 107z m67-73l62 61c5 6 5 12 0 17l-23 23c-5 5-11 5-16 0l-62-62 39-39z m-168 375v-487h706v487h-706z m667-448h-622v403h622v-403z" horiz-adv-x="1000" />

<glyph glyph-name="h5p" unicode="&#xe88e;" d="M871 453c-22 16-49 27-88 27h-136v-65h-152l-11-55c11 6 27 11 38 11s22 0 33 0c32 0 65-11 87-33s32-49 32-81c0-22-5-44-16-66s-27-38-49-49c-5-5-16 0-22-11h115v131h65c44 0 76 11 98 27 22 22 33 49 33 82 0 38-11 65-27 82v0z m-93-109c-11-6-22-11-44-11h-32v82h38c22 0 32-6 43-11 6-6 11-17 11-28 0-16-5-27-16-32v0z m-267-38c-16 0-33-11-44-28l-92 17 43 190h-92v-147h-115v147h-109v-354h109v131h115v-131h136c-16 11-33 11-44 22s-21 22-27 33c-5 11-11 22-16 38l92 16c6-16 22-27 44-27 27 0 49 22 49 49 0 22-22 44-49 44v0z" horiz-adv-x="1000" />

<glyph glyph-name="rights-of-use" unicode="&#xe88f;" d="M858 296c0-5 0-5 0-5-23-23-46-35-75-41-12 0-23-6-35-6s-17 0-29 0c0 0-5 0-5 6-64 58-133 116-197 179 0 0-5 0-5 0-23-6-47-11-70-17s-52 0-75 11c-17 12-23 18-28 35-6 6 0 23 11 23 40 12 87 29 127 46 12 6 29 6 40 6 6 0 12-6 12-6 40-17 81-29 121-46 0 0 6 0 6 0 29 6 63 17 92 23 6 0 6 0 6 0l104-208z m-594 6c17 12 34 6 51-11 12-12 12-29 6-47 18 6 35-5 41-17 11-17 5-34-6-46 6 0 11 0 17 0 12-6 23-12 29-29s0-29-6-34c-6-6-11-12-17-18s-12-11-17-17-35-17-52 0c-29 29-52 63-81 92-17 23-35 41-46 64-6 11-12 17-12 29 0 5 0 17 6 23 12 11 17 17 29 28 17 18 46 12 63-5-5 0-5-6-5-12v0z m144-202l29-29c17-17 46-11 57 6l-5 6c-24 23-47 46-70 69-5 6-5 6-5 12s5 5 11 11c6 0 12 0 12-6 11-11 28-28 46-46 11-11 29-29 46-46 6-11 17-11 29-11 11 5 23 11 29 23 0 5 0 5 0 5-41 41-87 81-127 127-6 6-6 6-6 12 0 11 11 11 23 6 0 0 6 0 6-6 40-40 86-87 127-127 5-6 5-6 5-6 18 0 35 18 35 35 0 6 0 6 0 6-46 46-98 98-144 144-6 6-6 6-6 11s6 12 6 12c6 0 11 0 11-6 6-6 6-6 12-11 35-35 69-70 104-104 11-12 23-23 29-29 0 0 5-6 5 0 23 6 35 29 29 52h35c0 0 0 0 0 0 0-6 0-17 0-23-6-29-23-46-52-58 0 0-6 0-6-6-11-29-34-52-63-52-6 0-6 0-6-5-17-35-58-47-87-35-5 0-11 6-11 6-6-6-12-12-23-18-29-11-58-5-75 12-12 11-18 17-29 29 17 23 23 29 29 40v0 0z m-162 502c29-11 64-23 93-29 34-11 63-23 98-29 0 0 0 0 5 0-17-5-34-11-46-17 0 0-6 0-6 0-46 12-92 23-132 41-6 0-6 0-6 0l-75-179c0-12 6-18 12-23s5-6 5-12c-5-6-11-17-23-23-17 17-29 35-29 63l87 208c-6-11 6 6 17 0v0z" horiz-adv-x="1000" />

<glyph glyph-name="delete-circle" unicode="&#xe890;" d="M500 563c-144 0-254-116-254-255s116-254 254-254 254 116 254 254-110 255-254 255z m138-332c6-5 6-17 0-28l-33-33c-5-5-17-5-28 0l-77 78-77-78c-6-5-17-5-28 0l-33 33c-6 6-6 17 0 28l83 77-78 78c-5 5-5 16 0 27l34 34c5 5 16 5 27 0l72-83 77 77c6 6 17 6 28 0l33-33c6-6 6-17 0-28l-77-72 77-77z" horiz-adv-x="1000" />

<glyph glyph-name="window" unicode="&#xe891;" d="M182 428c-5-5 0-5 6-5l106-12c5 0 11 6 11 12l-17 100c0 5-5 5-5 5l-101-100z m67 61l-61 62c-6 5-11 5-17 0l-16-23c-6-5-6-11 0-16l61-62 33 39z m468 34c-5 5-5 0-5-6l-11-106c0-5 5-11 11-11l106 11c5 0 5 6 5 6l-106 106z m62-73l61 62c5 5 5 11 0 16l-22 23c-6 5-12 5-17 0l-61-62 39-39z m33-256c6 6 0 6-6 6l-100 16c-5 0-11-5-11-11l11-106c0-5 6-5 6-5l100 100z m-67-61l61-61c6-6 12-6 17 0l22 22c6 5 6 11 0 17l-61 61-39-39z m-468-34c6-5 6 0 6 6l11 106c0 5-6 11-11 11l-106-11c-6 0-6-6-6-6l106-106z m-61 67l-61-61c-6-6-6-11 0-17l22-22c5-6 11-6 17 0l61 61-39 39z m111 268v-234h340v234h-340z m296-195h-257v150h257v-150z" horiz-adv-x="1000" />

<glyph glyph-name="code" unicode="&#xe892;" d="M436 196c6-6 6-12 6-19v-60c0-7-6-7-6-7l-225 153c-6 6-6 12-6 18v49c0 6 6 12 6 18l225 152c6 6 6 0 6-6v-61c0-6-6-12-6-18l-158-110c-6-6-6-6 0-12l158-97z m280 103c6 6 6 6 0 12l-152 110c-6 6-6 12-6 18v61c0 6 6 6 6 6l225-152c6-6 6-12 6-18v-49c0-6-6-12-6-18l-225-152c-6-7-6 0-6 6v61c0 6 6 12 6 18l152 97z" horiz-adv-x="1000" />

<glyph glyph-name="download" unicode="&#xe893;" d="M345 392c-12 0-17-6-6-18l150-183c5-12 23-12 28 0l150 183c6 12 6 18-6 18h-316z m213-12v132c0 12-12 23-23 23h-69c-12 0-23-11-23-23v-138h115z m74-132c-5 0-17-6-23-11l-74-92c-6-6-18-18-23-23 0 0-6-6-12-6s-17 11-17 11c-6 6-17 18-23 23l-75 92c-6 6-17 12-23 12h-121c-5 0-17-6-17-17v-138c0-6 6-18 17-18h518c6 0 17 6 17 18v138c0 5-6 17-17 17l-127-6z m-339-109c-17 0-29 11-29 29s12 28 29 28c17 0 29-11 29-28s-12-29-29-29v0z" horiz-adv-x="1000" />

<glyph glyph-name="delete" unicode="&#xe894;" d="M601 308l131 131c10 10 10 30 0 41l-61 60c-10 10-30 10-40 0l-131-131-131 131c-10 10-30 10-40 0l-61-60c-10-11-10-31 0-41l131-131-131-131c-10-10-10-30 0-40l61-60c10-10 30-10 40 0l131 131 131-131c10-10 30-10 40 0l61 60c10 10 10 30 0 40l-131 131z" horiz-adv-x="1000" />

<glyph glyph-name="edit-image" unicode="&#xe900;" d="M293 624c68 22 131 14 185-33 55-47 76-108 62-179-3-12 0-19 8-27 92-92 153-153 245-245 5-5 11-10 15-16 39-49 17-121-43-139-36-11-67 0-93 27-94 93-157 157-251 251-7 6-12 8-22 6-115-26-224 60-226 177-1 26 3 51 15 76 34-34 67-66 99-99 11-10 21-15 36-15 14 0 24 4 34 15 10 12 22 22 33 34 14 14 14 45 0 59-34 34-69 69-104 104 4 2 6 3 7 4z m394-545c0-24 20-45 44-44 23 0 43 20 43 43 0 23-20 43-43 43-24 1-44-19-44-42z" horiz-adv-x="1000" />

<glyph glyph-name="hourglass" unicode="&#xe901;" d="M716 6c-144 0-288 0-433 0 0 2 0 4 0 6 0 14-1 32-1 46 1 39 7 76 19 112 17 51 43 94 79 128 5 4 9 7 14 11 0 1 0 1-1 1-1 1-2 3-4 4-27 22-49 50-66 83-30 58-43 121-41 188 1 7 1 18 1 25 145 0 289 0 433 0 0-1 1-2 1-4 2-36 1-75-6-111-14-71-44-130-93-175-4-4-8-7-12-10 0-1 0-1 1-2 0 0 1-1 2-2 41-33 70-78 89-132 11-34 18-68 19-104 1-20 0-44-1-64z m-45 43c0 6 1 12 0 18-1 36-7 72-19 106-18 48-45 86-87 106-2 1-3 3-3 6 1 16 1 32 0 49 0 3 2 5 4 6 9 6 18 10 27 17 29 23 48 55 61 93 10 30 15 61 17 93 1 9 0 18 0 27-114 0-228 0-343 0 1-9 1-17 1-25 2-36 9-71 21-105 18-46 44-81 85-100 2-1 3-3 3-6-1-16-1-33 0-50 0-3-1-5-4-6-5-2-11-5-16-9-33-22-55-56-70-97-12-35-18-71-19-108-1-5 0-10 0-16 114 1 228 1 342 1z m-270 409c66 0 132 0 199 0-4-6-7-12-11-18-11-16-24-30-39-40s-27-25-32-46c-1-7-2-14-2-21-1-17-1-33 0-50 1-28 12-48 31-61 42-30 65-75 74-130 1-1 1-3 1-5-81 0-162 0-244 0 3 20 8 39 16 57 13 33 32 58 58 76 16 12 27 28 31 50 1 5 2 10 2 15 0 18 0 36-1 54-1 24-11 42-27 56-9 7-19 14-27 22-12 11-21 25-29 41z" horiz-adv-x="1000" />

<glyph glyph-name="plus-icon" unicode="&#xe902;" d="M750 274c0-18-15-34-34-34h-148v-148c0-19-15-34-34-34h-68c-19 0-34 15-34 34v148h-148c-19 0-34 16-34 34v68c0 19 15 35 34 35h148v147c0 19 15 35 34 35h68c19 0 34-16 34-35v-147h148c19 0 34-16 34-35z" horiz-adv-x="1000" />

<glyph glyph-name="video-upload-icon" unicode="&#xe903;" d="M387 270v-125c0-21 20-42 41-42h125c21 0 42 17 42 42v125c0 21-17 42-42 42h-125c-21 0-41-17-41-42z m391 167l-100 104c-12 12-37 21-54 21h-137l20-42h88v-133c0-17 12-30 29-30h138v-333h-417v321h-42v-333c0-17 13-30 29-30h438c17 0 29 13 29 30v375c4 16-8 37-21 50z m-141-42v121c4 0 12-4 12-9l100-100c4-4 4-8 8-12h-120z m83-283v191c0 4-4 9-8 9s-9 0-13-5l-87-87v-29l87-88c8-4 8 0 13 0 4 4 8 4 8 9z m-367 300v133l59-58c8-9 16-5 25 0l12 12c8 8 8 17 0 25l-112 104c-9 9-17 9-21 0l-113-108c-4-8-4-17 0-25l13-13c8-8 16-8 21 0l58 59v-134c0-8 8-16 17-16h25c0 0 16 8 16 21z" horiz-adv-x="1000" />

<glyph glyph-name="play-icon" unicode="&#xe904;" d="M367 538c79 45 183 45 266 0 42-25 71-55 96-96 71-125 29-288-96-363-125-71-287-29-362 96-46 79-46 183 0 267 21 41 54 71 96 96z m262-246c13 8 13 29 0 37l-187 109c-9 4-13 4-21 0s-13-13-13-21v-221c0-8 5-17 13-21s17-4 21 0l187 117z" horiz-adv-x="1000" />

<glyph glyph-name="copy" unicode="&#xe905;" d="M705 481h-242c-64 0-116-52-116-116v-282c0-64 52-116 116-116h242c65 0 117 52 117 116v282c0 64-52 116-117 116z m55-395c0-30-24-55-55-55h-242c-30 0-55 25-55 55v279c0 31 25 55 55 55h242c31 0 55-24 55-55v-279z m-520 166v282c0 30 24 55 55 55h242c30 0 55-25 55-55v-19h61v19c0 64-52 116-117 116h-241c-65 0-117-52-117-116v-282c0-65 52-117 117-117h18v62h-18c-31-3-55 21-55 55z m425 33h-159c-18 0-31 13-31 31s13 31 31 31h159c19 0 31-13 31-31s-15-31-31-31z m0-91h-159c-18 0-31 12-31 30s13 31 31 31h159c19 0 31-13 31-31s-15-30-31-30z m0-92h-159c-18 0-31 12-31 30s13 31 31 31h159c19 0 31-12 31-31s-15-30-31-30z" horiz-adv-x="1000" />

<glyph glyph-name="examples-icon" unicode="&#xe906;" d="M208 160c88 38 180 67 267 17v275c-67 46-154 54-229 13l-38-305z m584 0l-42 309c-71 37-162 33-229-17v-279c92 50 183 21 271-13z m21 346c-50 29-109 46-167 54-50 0-100-8-146-29-46 21-96 29-146 29-58-4-116-25-166-54l-63-441c0 0 29-17 108 20 46 25 100 34 155 25 41-4 83-20 112-54v0c29 34 71 50 113 54 54 5 104-4 154-29 79-37 108-21 108-21l-62 446z m-38-396c-42 21-87 34-137 34-9 0-21 0-30 0-41-4-79-17-112-42-33 25-71 38-113 42-12 0-20 0-33 0-46 0-92-9-133-29-21-13-46-21-71-25l62 404c46 25 96 37 146 41 46 0 92-8 134-25l12-8 13 4c41 17 87 25 133 25 50-4 100-16 146-41l58-409c-29 9-50 17-75 29z" horiz-adv-x="1000" />

<glyph glyph-name="tutorials-icon" unicode="&#xe907;" d="M867 417l-367-109h-4l-213 67c-20-25-33-58-33-96 21-12 25-37 13-58-5-4-9-8-13-13l17-141c0-4 0-4-4-9 0 0 0 0-5 0h-62c-4 0-4 0-8 5 0 4-5 4-5 8l17 142c-12 8-17 20-17 33 0 17 9 29 21 37 0 38 13 75 34 109l-105 29c-8 4-8 8-8 17 0 4 4 4 4 4l367 116h4l367-120c4 0 8-5 8-9s-4-8-8-12z m-159-192c5-46-91-83-208-83s-208 37-208 83l4 104 187-62c5 0 13 0 17 0s13 0 17 4l187 58 4-104z" horiz-adv-x="1000" />

<glyph glyph-name="info-important-description" unicode="&#xe908;" d="M500 642c-184 0-333-149-333-334s149-333 333-333 333 149 333 333-149 334-333 334v0z m0-639c-169 0-305 137-305 305s136 306 305 306c169 0 305-137 305-306 0-168-136-305-305-305v0z m0 549c-135 0-244-109-244-244s109-243 244-243 244 109 244 243-109 244-244 244v0z" horiz-adv-x="1000" />

<glyph glyph-name="icon-info" unicode="&#xe909;" d="M458 444h85c0 0 0 0 0 0 6 0 12 3 15 7 4 4 7 10 7 16 0 0 0 0 0 0v69c0 0 0 0 0 0 0 6-3 11-7 16-3 4-9 6-15 6 0 0 0 0 0 0h-85c0 0 0 0 0 0-6 0-11-2-15-6-4-5-6-10-6-16 0 0 0 0 0 0v-69c0 0 0 0 0 0 0-6 2-11 6-15 4-5 9-7 15-8z m127-295h-22v205c0 0 0 0 0 0 0 6-2 11-6 15-4 5-9 7-15 7 0 0 0 0 0 0h-127c0 0 0 0 0 0-6 0-11-2-15-7-4-4-6-9-6-15 0 0 0 0 0 0v-46c0 0 0 0 0 0 0-6 2-12 6-16 4-4 9-6 15-6 0 0 0 0 0 0h22v-137h-22c0 0 0 0 0 0-6 0-11-3-15-7-4-4-6-9-6-15 0 0 0 0 0-1v-45c0 0 0 0 0 0 0-6 2-12 6-16 4-4 9-6 15-6 0 0 0 0 0 0h170c0 0 0 0 0 0 6 0 11 2 15 6 4 4 6 10 6 16 0 0 0 0 0 0v45c0 1 0 1 0 2 0 5-1 10-4 14-4 4-9 7-16 7 0 0-1 0-1 0z" horiz-adv-x="1000" />

<glyph glyph-name="paste" unicode="&#xe90a;" d="M385 619h-73c-65 0-117-52-117-116v-282c0-55 37-98 86-113v67c-15 10-24 25-24 46v282c0 31 24 55 55 55h128c0 0 0 0 3 3v0c0 31-27 58-58 58z m303-107c0 0-27 0-40 0-12 34-42 58-82 58s-68-24-80-58c-12 0-40 0-40 0-64 0-116-52-116-116v-282c0-64 52-117 116-117h242c65 0 117 53 117 117v279c3 64-52 119-117 119z m-119 12c21 0 40-18 40-39s-19-40-40-40c-22 0-40 18-40 40s15 39 40 39z m178-413c0-31-25-55-56-55h-245c-30 0-55 24-55 55v282c0 18 10 36 25 46v0c0-43 34-77 76-77h157c42 0 76 34 76 77v0c12-10 22-28 22-46v-282z" horiz-adv-x="1000" />

<glyph glyph-name="reuse" unicode="&#xe90b;" d="M718 523c-54 60-131 98-218 98-161 0-292-131-292-292h73c0 121 98 219 219 219 67 0 126-30 166-77l-69-69h195v195l-74-74z m-218-413c-67 0-126 31-166 78l69 68h-195v-194l74 74c54-60 131-98 218-98 161 0 292 130 292 291h-73c0-121-98-219-219-219z" horiz-adv-x="1000" />

<glyph glyph-name="info-outlined" unicode="&#xe90c;" d="M456 69h88v262h-88v-262z m44 656c-241 0-437-196-437-437s196-438 437-438 438 196 438 438-196 437-438 437z m0-788c-193 0-350 158-350 351s157 350 350 350 350-158 350-350-157-351-350-351z m-44 482h88v87h-88v-87z" horiz-adv-x="1000" />

<glyph glyph-name="spinner" unicode="&#xe90d;" d="M586 681c0-48-38-86-86-86s-86 38-86 86 39 86 86 86 86-39 86-86z m-86-659c-47 0-86-39-86-86s39-86 86-86 86 38 86 86-38 86-86 86z m372 372c-47 0-85-38-85-86s38-86 85-86 86 39 86 86-38 86-86 86z m-658-86c0 48-39 86-86 86s-86-38-86-86 38-86 86-86 86 39 86 86z m23-177c-48 0-86-38-86-86s38-86 86-86 86 38 86 86c0 48-39 86-86 86z m526 0c-47 0-86-38-86-86s39-86 86-86 86 38 86 86c0 48-38 86-86 86z m-526 527c-48 0-86-39-86-86s38-86 86-86 86 38 86 86-39 86-86 86z" horiz-adv-x="1000" />

<glyph glyph-name="copy-enabled" unicode="&#xe90e;" d="M600 682h-310c-73 0-133-59-133-133v-361c0-43 21-81 52-106v69c-4 11-7 23-7 37v361c0 48 40 88 88 88h310c15 0 29-4 41-11h67c-24 34-63 56-108 56z m59-529h-205c-14 0-22-8-22-23s8-22 22-22h205c11 0 22 8 22 22 0 15-8 23-22 23z m0 118h-205c-14 0-22-8-22-23s8-22 22-22h205c11 0 22 8 22 22 0 15-8 23-22 23z m51 291h-311c-73 0-132-60-132-133v-362c0-73 59-132 132-132v0h311c73 0 133 59 133 132v362c0 73-60 133-133 133z m87-491c0-48-39-87-87-87h-311c-48 0-87 39-87 87v358c0 48 39 88 87 88h311c48 0 87-40 87-88v-341h0v-17z m-138 318h-205c-14 0-22-8-22-23s8-22 22-22h205c11 0 22 8 22 22 0 15-8 23-22 23z" horiz-adv-x="1000" />

<glyph glyph-name="copy-disabled" unicode="&#xe90f;" d="M600 682h-310c-73 0-133-59-133-133v-361c0-43 21-81 52-106v69c-4 11-7 23-7 37v361c0 48 40 88 88 88h310c15 0 29-4 41-11h67c-24 34-63 56-108 56z m110-120h-311c-73 0-132-60-132-133v-362c0-73 59-132 132-132v0h311c73 0 133 59 133 132v362c0 73-60 133-133 133z m87-491c0-48-39-87-87-87h-311c-48 0-87 39-87 87v358c0 48 39 88 87 88h311c48 0 87-40 87-88v-341h0v-17z m-104 279l-27 26-107-106-107 106-27-26 107-107-107-107 27-27 107 107 107-107 27 27-107 107 107 107z" horiz-adv-x="1000" />

<glyph glyph-name="paste-enabled" unicode="&#xe910;" d="M401-52c-74 0-134 60-134 133v365c0 73 60 133 134 133h63l4 11c15 41 47 64 87 64 42 0 77-24 91-64l4-11h64c36 0 71-15 97-42 25-27 38-60 36-95v-361c0-73-60-133-133-133l-313 0z m-48 567c-25-14-40-43-40-73v-365c0-48 39-88 88-88h317c43 0 78 31 86 71h2l0 17v365c0 28-14 57-34 73l-27 20v-17c0-46-36-82-82-82h-203c-46 0-82 36-82 82v13l-25-16z m206 93c-27 0-48-20-48-47 0-26 22-48 48-48s48 22 48 48c0 25-22 47-48 47z m-147 30c8 8 17 16 24 25 2 2 4 4 6 6h-155c-74 0-134-60-134-134v-365c0-44 21-83 54-108v67c-6 12-9 26-9 41v365c0 49 40 88 89 88h114c3 5 7 10 11 15z" horiz-adv-x="1000" />

<glyph glyph-name="paste-disabled" unicode="&#xe911;" d="M401-52c-74 0-134 60-134 133v365c0 73 60 133 134 133h63l4 11c15 41 47 64 87 64 42 0 77-24 91-64l4-11h64c36 0 71-15 97-42 25-27 38-60 36-95v-361c0-73-60-133-133-133l-313 0z m-48 567c-25-14-40-43-40-73v-365c0-48 39-88 88-88h317c43 0 78 31 86 71h2l0 17v365c0 28-14 57-34 73l-27 20v-17c0-46-36-82-82-82h-203c-46 0-82 36-82 82v13l-25-16z m206 93c-27 0-48-20-48-47 0-26 22-48 48-48s48 22 48 48c0 25-22 47-48 47z m-147 30c8 8 17 16 24 25 2 2 4 4 6 6h-155c-74 0-134-60-134-134v-365c0-44 21-83 54-108v67c-6 12-9 26-9 41v365c0 49 40 88 89 88h114c3 5 7 10 11 15z m290-293l-28 27-108-108-108 108-27-27 108-108-108-108 27-28 108 108 108-108 28 28-108 108 108 108z" horiz-adv-x="1000" />

<glyph glyph-name="button-disabled" unicode="&#xe912;" d="M833 575l-67 67-266-266-266 266-67-67 266-267-266-266 67-67 266 266 266-266 67 67-266 266z" horiz-adv-x="1000" />

<glyph glyph-name="audio-icon" unicode="&#xe913;" d="M462 468v-312c0-10-8-18-18-18-5 0-10 2-13 5l-96 96h-75c-10 0-18 8-19 18v110c1 10 9 18 19 18h75l95 96c8 7 19 7 26 0 4-4 6-8 6-13h0z m110-115c8-12 13-26 13-41s-5-29-13-41c-7-12-19-22-33-27-2-1-4-2-7-2-5 0-9 2-13 6-4 3-6 8-5 13-1 4 1 7 3 10s5 5 8 7c4 2 7 5 10 7 4 3 7 6 9 10 4 11 4 23 0 33-2 4-5 8-9 11-3 2-6 4-10 6-3 2-6 5-8 7-2 3-4 7-3 11-1 5 2 9 5 13 4 3 8 5 13 5 3 0 5 0 7-1 14-5 25-14 33-27v0z m76 41c33-50 33-114 0-164-16-24-38-43-65-55-3-1-5-1-7-1-6 0-10 2-14 6-3 3-5 8-5 13 0 7 4 14 11 17 8 3 15 8 22 12 50 36 60 106 24 155-6 9-15 18-24 24-7 5-14 9-22 13-7 3-11 10-11 17 0 10 8 19 18 19 3 0 5-1 8-2 26-11 49-30 65-54z m76 40c67-102 39-240-64-308-11-7-22-13-34-18-3-1-5-2-8-2-10 0-18 8-18 19 0 7 4 14 11 17 2 1 4 2 7 3s4 2 6 3c8 4 16 9 24 15 23 17 42 39 56 65 26 53 26 115 0 168-14 26-33 48-56 65-8 6-16 11-24 15-2 1-4 2-6 3s-5 2-7 3c-7 3-11 10-11 17 0 10 8 18 18 19 3 0 6-1 8-2 40-17 74-45 98-82h0z" horiz-adv-x="1000" />

<glyph glyph-name="audio-upload-icon" unicode="&#xe914;" d="M778 437l-100 104c-12 12-37 20-54 20h-137l20-41h88v-134c0-16 12-29 29-29h138v-333h-417v321h-42v-333c0-17 13-30 29-30h438c17 0 29 13 29 30v375c4 16-8 37-21 50z m-141-42v121c4 0 12-5 12-9l100-100c4-4 4-8 8-12h-120z m-284 17v133l59-58c8-9 16-5 25 0l12 12c8 8 8 17 0 25l-112 104c-9 8-17 8-21 0l-113-108c-4-8-4-17 0-25l13-13c8-8 16-8 21 0l58 59v-134c0-8 8-16 17-16h25c0 0 16 8 16 21z m167-128v-183c0-6-5-11-5-11h-5c-5 0-5 0-10 5l-56 56h-46c-5 0-10 6-10 11v61c0 5 5 10 10 10h46l56 56c5 5 12 10 16 6s4-6 4-11z m82-168c20 20 30 46 30 76s-10 56-30 77c-10 10-21 10-31 0s-10-21 0-31c10-10 16-25 16-46s-5-30-16-46c-10-10-10-20 0-30 5-5 10-5 16-5s10 0 15 5z m71-51c31 36 46 76 46 122 0 46-15 87-46 123-10 15-20 15-30 10-10-10-10-21-5-31 20-25 35-61 35-97s-10-71-35-96c-11-11-5-26 5-31 5-5 10-5 15-5s10 0 15 5z" horiz-adv-x="1000" />

<glyph glyph-name="hub-icon" unicode="&#xe915;" d="M2027 723c-51 49-129 70-233 70h-333v-177h-436l-34-146c125 58 297 50 401-46 112-103 116-274 42-400-30-49-71-88-120-114-22-11-45-15-66-24h338v328h177c123 0 255 36 313 155 52 108 42 268-48 353z m-235-283c-22-19-61-25-116-25h-90v201h101c45 0 94-7 121-46 11-16 17-35 17-56 0-29-13-56-33-74z m-713-104c-50 0-94-29-114-71l-252 29 114 499h-223v-378h-327v378h-277v-907h277v328h327v-328h340c-118 27-198 117-231 230l252 36c22-42 65-71 114-71 71 0 128 57 128 128 0 70-57 127-128 127z m1215-450h-87l40 188c4 17 11 46-3 61-7 6-16 9-25 9-8 0-15-2-21-6-37-22-50-79-60-118l-28-134h-86l95 448h86c-12-57-25-113-42-169h3c31 39 86 66 134 39s42-89 32-134z m150 322h87l-40-187c-4-18-10-46 4-61 6-6 15-9 24-9 8 0 16 2 22 7 37 21 50 79 59 118l28 133h87l-68-323h-67l6 59h-1c-29-44-80-79-134-60-61 21-53 98-43 149z m515 6c118 0 96-168 64-238-17-42-51-74-92-90-10-3-21-5-31-5-34 0-64 19-79 46l-3 1-16-42h-66l94 448h87l-18-82c-8-35-16-64-27-91l4 4c18 28 48 46 82 48z m-35-71c-76 0-116-201-35-193 64 7 112 194 35 194z" horiz-adv-x="3077.1" />

<glyph glyph-name="update" unicode="&#xe916;" d="M17 433c50 225 248 391 485 391 133 0 254-52 343-138l84 84c7 8 17 12 29 12 23 0 42-18 42-41v-292c0-23-19-42-42-42h-292c-23 0-42 19-42 42 1 12 5 22 13 29l89 90c-59 57-140 92-230 92-120 0-225-64-284-160-12-22-24-47-33-73-4-13-12-19-21-19h-122c-11 1-19 10-20 21 0 1 1 2 1 4z m-16-234c0 23 18 42 41 42h292c23 0 42-19 42-42-1-11-5-21-13-29l-89-89c59-55 139-89 227-89 119 0 224 63 283 157 13 23 24 48 34 74 3 12 11 18 20 18h129c0 0 0 0 1 0 10 0 19-8 21-18l0 0c-51-224-249-389-485-389 0 0-1 0-1 0-133 1-254 53-344 138l-85-84c-7-7-17-12-29-12-23 0-42 18-42 41z" horiz-adv-x="1000" />

<glyph glyph-name="close" unicode="&#xe917;" d="M973-29l-115-115c-17-18-35-27-53-27s-44 9-53 27l-248 248-247-248c-18-18-36-27-53-27s-45 9-54 27l-123 115c-18 17-27 35-27 53s9 44 27 53l247 248-247 256c-18 18-27 36-27 54s9 44 27 53l115 115c8 17 35 26 53 26s44-9 53-26l248-248 247 248c18 17 36 26 54 26s44-9 53-26l115-115c17-18 26-36 26-53s-9-45-26-54l-248-247 248-248c17-18 26-36 26-53 9-27 0-45-17-62z" horiz-adv-x="1000" />

<glyph glyph-name="question-outlined" unicode="&#xe918;" d="M500-171c-275 0-498 224-498 499s223 498 498 498c275 0 499-223 499-498 0-275-224-499-499-499z m-415 499c0-229 186-416 415-416 229 0 416 186 416 416s-187 415-416 415c-229 0-415-186-415-415z m542-31c-33-19-54-32-54-52v-21c0-12-9-21-21-21h-104c-11 0-20 9-20 21v44c0 80 57 105 103 126 39 18 63 30 63 60 0 37-48 65-91 65-22 0-46-7-61-18-14-9-28-23-52-53-4-6-10-8-16-8-5 0-9 1-13 4l-70 53c-8 6-10 19-4 28 53 84 128 125 226 125 107 0 226-85 226-198 0-92-64-128-112-155z m-54-271c0-11-9-20-21-20h-104c-11 0-20 9-20 20v104c0 12 9 21 20 21h104c12 0 21-9 21-21v-104z" horiz-adv-x="1000" />

<glyph glyph-name="quality-approved" unicode="&#xe919;" d="M499-171c-276 1-499 224-499 500 0 276 224 500 500 500s500-224 500-500c0-276-225-500-501-500 0 0 0 0 0 0z m0 852c-195 0-354-158-354-354s159-354 354-354c196 0 354 159 354 354 0 1 0 2 0 2 0 196-158 355-354 355z m-11-572c-8-8-18-13-30-13s-21 5-29 13l-189 189c-8 7-12 18-12 29s4 22 12 30l66 66c7 7 18 12 29 12s22-5 30-12l94-95 179 179c8 8 18 12 30 12s21-4 29-12l66-66c8-7 13-18 13-29s-5-22-13-30z" horiz-adv-x="1000" />

<glyph glyph-name="arrow-thick" unicode="&#xe91a;" d="M971 288c0-1 0-3 0-5 0-42-33-76-75-77l-451 0 190-189c15-15 24-35 24-58s-9-43-24-58l-48-48c-15-15-35-24-58-24 0 0 0 0 0 0-23 0-43 9-58 24l-421 419c-14 14-23 35-23 57 0 0 0 1 0 1 0 22 9 43 23 58l421 417c15 15 35 24 58 24 23 0 43-9 58-24l48-48c15-15 24-36 24-58s-9-44-24-59l-188-188h452c41-1 74-35 74-77 0-2 0-3 0-5z" horiz-adv-x="1000" />

<glyph glyph-name="grid-view" unicode="&#xe91b;" d="M461 442c0-42-34-77-77-77h-307c-42 0-77 35-77 77v235c0 43 35 77 77 77h308c42 0 77-34 77-77z m0-461c0-42-34-77-77-77h-307c-42 0-77 35-77 77v231c0 42 35 77 77 77h308c42 0 77-35 77-77z m538 461c0-42-34-77-77-77h-307c-42 0-77 35-77 77v235c0 43 35 77 77 77h308c43 0 77-34 77-77z m0-461c0-42-34-77-77-77h-307c-42 0-77 35-77 77v231c0 42 35 77 77 77h308c43 0 77-35 77-77z" horiz-adv-x="1000" />

<glyph glyph-name="list-view" unicode="&#xe91c;" d="M286 578c0-1 0-1 0-2 0-30-24-54-54-55l-178 0c-30 1-54 25-54 55 0 1 0 1 0 2l0 115c0 1 0 1 0 2 0 30 24 54 54 55l178 0c30-1 54-25 54-55 0-1 0-1 0-2z m0-306c0-1 0-2 0-2 0-30-24-55-54-56l-178 0c-30 1-54 26-54 56 0 0 0 1 0 2l0 115c0 0 0 1 0 2 0 30 24 54 54 55l178 0c30-1 54-25 54-55 0-1 0-2 0-2z m0-307c0 0 0-1 0-2 0-29-24-54-54-55l-178 0c-30 1-54 26-54 55 0 1 0 2 0 2l0 116c0 0 0 1 0 1 0 30 24 55 54 56l178 0c30-1 54-26 54-56 0 0 0-1 0-2z m714 613c0-1 0-1 0-2 0-30-24-54-53-55l-536 0c-30 1-54 25-54 55 0 1 0 1 0 2l0 115c0 1 0 1 0 2 0 30 24 54 54 55l535 0c30-1 54-25 54-55 0-1 0-1 0-2z m0-306c0-1 0-2 0-2 0-30-24-55-53-56l-536 0c-30 1-54 26-54 56 0 0 0 1 0 2l0 115c0 0 0 1 0 2 0 30 24 54 54 55l535 0c30-1 54-25 54-55 0-1 0-2 0-2z m0-307c0 0 0-1 0-2 0-29-24-54-53-55l-536 0c-30 1-54 26-54 55 0 1 0 2 0 2l0 116c0 0 0 1 0 1 0 30 24 55 54 56l535 0c30-1 54-26 54-56 0 0 0-1 0-2z" horiz-adv-x="1000" />

<glyph glyph-name="filters" unicode="&#xe91d;" d="M212 707v96c0 14-11 26-26 26h-9c-14 0-26-12-26-26v-96c-62-14-108-69-108-134s46-121 107-134l1-579c0-15 12-27 26-27h8c15 0 27 12 27 27v575c68 8 120 66 120 136 0 69-52 126-119 136z m325-407v503c0 14-12 26-27 26h-4c-15 0-27-12-27-26v-502c-69-12-122-72-122-144s53-132 121-144l1-156c0-14 12-26 27-26h4c15 0 27 12 27 26v156c66 15 114 73 114 143s-48 127-113 142z m420 173c0 67-49 123-114 133l-1 197c0 14-12 26-27 26h-6c-14 0-26-12-26-26v-201c-57-16-98-68-98-129s41-113 97-129l1-488c0-15 12-27 26-27h5c15 0 26 12 26 27v484c66 9 117 65 117 133z" horiz-adv-x="1000" />

<glyph glyph-name="feedback-forum" unicode="&#xe91e;" d="M461 141c0 107 120 193 269 193s270-86 270-193c-4-66-44-122-100-150 9-36 28-67 53-90 5-5 10-10 8-18v0c-1-6-7-11-13-11-1 0-1 0-1 0-13 1-25 3-36 7-53 12-100 38-139 72-7-1-14-1-22-1s-15 0-23 1c-146-1-266 84-266 190z m-133 95c54 146 223 242 418 242h27c1 4 1 10 1 16s0 11-1 17c0 152-173 276-388 276s-385-126-385-279c5-96 63-178 145-218-13-51-41-94-77-127-7-8-14-15-12-25v0c2-10 10-17 20-17 0 0 1 0 1 0 19 2 36 5 52 10 75 19 142 55 197 104 3-1-2 1 2 1z" horiz-adv-x="1000" />

<glyph glyph-name="info-circle1" unicode="&#xe91f;" d="M933 581c42-72 67-159 67-251s-25-179-68-254c-43-73-105-135-179-178-74-44-161-68-253-68s-179 24-253 68c-74 43-135 105-179 178-43 75-68 161-68 254s25 179 68 253c44 73 105 134 179 177 74 44 161 69 253 69s179-25 253-69c74-43 135-104 179-177z m-266-566v103c0 1 0 1 0 1 0 11-9 20-20 20 0 0 0 0-1 0l-64 0v340c0 0 0 0 0 1 0 11-9 19-20 19 0 0 0 0-1 0l-206 0c0 0-1 0-1 0-11 0-20-8-20-19 0-1 0-1 0-1l0-104c0 0 0-1 0-1 0-11 9-20 20-20 0 0 1 0 1 0l62 0v-208h-62c0 0-1 0-1 0-11 0-20-9-20-20 0 0 0-1 0-1l0-104c0 0 0 0 0-1 0-11 9-20 20-20 0 0 1 1 1 1l291 0c1 0 1-1 1-1 11 0 20 9 20 20 0 1 0 1 0 1z m-85 585v104c0 0 0 1 0 1 0 11-9 20-20 20 0 0 0 0-1 0l-123 0c0 0-1 0-1 0-11 0-20-9-20-20 0 0 0-1 0-1l0-104c0 0 0 0 0-1 0-11 9-19 20-19 0 0 1 0 1 0l124 0c0 0 0 0 0 0 11 0 20 8 20 19 0 1 0 1 0 1z" horiz-adv-x="1000" />

<glyph glyph-name="radio" unicode="&#xe920;" d="M500-171c-276 0-500 224-500 500s224 500 500 500c276 0 500-224 500-500s-224-500-500-500z m0 912c-228 0-412-184-412-412s184-412 412-412c228 0 412 185 412 412s-184 412-412 412z m207-412c0-114-93-206-207-206s-207 92-207 206c0 114 93 207 207 207s207-93 207-207z" horiz-adv-x="1000" />

<glyph glyph-name="check" unicode="&#xe921;" d="M882-192h-764c-76 0-137 61-137 137v768c0 76 61 137 137 137h764c76 0 137-61 137-137v-768c0-76-61-137-137-137z m-764 951c-25 0-45-21-45-46v-768c0-25 20-45 45-45h764c25 0 45 20 45 45v768c0 25-20 46-45 46z m727-295c0 0 0 0 0 0 0-11-5-21-12-28l-367-367c-7-7-18-12-29-12s-21 5-29 12l-58 58-156 155c-8 7-12 17-12 29s4 21 12 29l58 58c7 7 17 11 29 11s21-4 29-11l125-126 279 280c7 7 18 12 29 12s22-5 29-12l58-58c9-7 14-18 15-29z" horiz-adv-x="1000" />

<glyph glyph-name="radio-empty" unicode="&#xe922;" d="M500-171c-276 0-500 224-500 500s224 500 500 500c276 0 500-224 500-500s-224-500-500-500z m0 912c-228 0-412-184-412-412s184-412 412-412c228 0 412 185 412 412s-184 412-412 412z" horiz-adv-x="1000" />

<glyph glyph-name="check-empty" unicode="&#xe923;" d="M867-171h-734c-72 0-131 59-131 131v738c0 72 59 131 131 131h734c72 0 131-59 131-131v-738c0-72-59-131-131-131z m-734 912c-24 0-43-19-43-43v-738c0-24 19-43 43-43h734c24 0 43 19 43 43v738c0 24-19 43-43 43z" horiz-adv-x="1000" />

<glyph glyph-name="arrow-line" unicode="&#xe924;" d="M973 576l-43 43c-17 16-40 26-66 26s-49-10-66-26l-296-297-299 298c-17 16-40 26-66 26s-49-10-66-26l-43-44c-17-17-28-40-28-66s11-49 28-66l404-405c17-16 40-27 66-27s49 11 66 27l409 405c17 17 27 40 27 66s-10 49-27 66z" horiz-adv-x="1000" />

<glyph glyph-name="accordion-arrow" unicode="&#xe925;" d="M763 285l-438-437c-11-12-27-19-44-19-34 1-62 28-62 62v876c0 34 28 62 62 62 17 0 33-7 44-18l438-438c11-11 18-27 18-44s-7-32-18-44z" horiz-adv-x="1000" />

<glyph glyph-name="search1" unicode="&#xe926;" d="M922-171c0 0 0 0 0 0-21 0-40 9-54 22l-206 209c-66-46-149-74-239-74-233 0-421 189-421 422s188 421 421 421c233 0 422-189 422-421 0-90-28-173-75-241l207-204c13-14 21-33 21-54 0-43-34-77-76-77z m-500 845c-148 0-268-120-268-268s120-269 268-269c149 0 269 120 269 269s-120 268-269 268z" horiz-adv-x="1000" />

<glyph glyph-name="scrollbar-bars-icon" unicode="&#xe927;" d="M845 680c0-29-12-51-28-51h-634c-16 0-28 22-28 51v99c0 28 12 50 28 50h629c17 0 28-22 28-50z m0-399c0-28-12-51-28-51h-634c-16 0-28 23-28 51v99c0 28 12 50 28 50h629c17 0 28-22 28-50z m0-402c0-28-12-50-28-50h-634c-16 0-28 22-28 50v100c0 28 12 50 28 50h629c17 0 28-22 28-50z" horiz-adv-x="1000" />

<glyph glyph-name="loading-search" unicode="&#xe928;" d="M503-153c-268 0-485 217-485 485 0 243 180 444 413 479v-128c-164-33-287-178-287-351 0-198 161-359 359-359s358 161 358 359c0 173-123 318-287 351v128c233-35 413-236 413-479 0-268-217-485-484-485z" horiz-adv-x="1000" />

<glyph glyph-name="interactive-video" unicode="&#xe929;" d="M714 342l-325 197c-30 17-66-4-66-38v-385c0-34 36-55 66-39l325 187c30 17 30 61 0 78z m244-34c0 254-205 459-458 459s-458-205-458-459 205-458 458-458 458 205 458 458z m-828 0c0 205 166 370 370 370s370-165 370-370-166-369-370-369-370 165-370 369z" horiz-adv-x="1000" />

<glyph glyph-name="audio" unicode="&#xe92a;" d="M386 597l-139-139h-159c-21 0-38-16-38-37v-225c0-21 17-38 38-38h159l139-139c24-23 64-7 64 27v525c0 33-41 50-64 26z m365 80c-18 12-41 7-53-11-11-17-6-41 11-52 104-68 165-182 165-306s-61-237-165-305c-17-12-22-35-11-53 11-16 35-22 53-11 124 83 199 220 199 369s-75 287-199 369z m49-369c0 100-50 191-134 245-17 11-41 5-52-12s-6-41 12-52c62-40 99-107 99-181s-37-140-99-180c-18-11-23-34-12-52 10-16 33-24 52-12 84 54 134 145 134 244z m-221 121c-19 9-41 3-51-15-10-18-4-41 14-51 21-11 33-32 33-55 0-22-12-43-33-54-18-10-24-33-14-51 10-18 32-25 51-15 44 25 71 71 71 120s-27 96-71 121z" horiz-adv-x="1000" />

<glyph glyph-name="true-false" unicode="&#xe92b;" d="M422 595l-216-223c-7-8-22-8-37 0l-30 29-81 97c-8 7-8 22 0 37l29 30c8 7 23 7 38 0l74-74 164 171c14 7 29 7 37 0l29-30c8-8 8-15 8-22 0 0-8-8-15-15v0z m520-610l-29-30c-8-7-23-7-30 0 0 0 0 0 0 0l-67 67-67-67c-7-7-22-7-30 0 0 0 0 0 0 0l-29 30c-8 7-8 22 0 30l67 67-67 67c-8 7-8 22 0 29l29 30c8 7 23 7 30 0 0 0 0 0 0 0l67-67 67 67c7 7 22 7 30 0 0 0 0 0 0 0l29-30c8-7 8-22 0-29l-66-67 66-67c8 0 8-15 0-30v0z m-178 647l-558-580c-15-15-15-37 0-52v0c15-15 38-15 52 0l558 580c15 15 15 37 0 52v0c-15 15-37 15-52 0z" horiz-adv-x="1000" />

<glyph glyph-name="dialog-cards" unicode="&#xe92c;" d="M863 624l-385 140c-27 9-56-5-66-32l-19-52h178c48 0 87-39 87-86v-686c0 0 1 1 1 2l235 647c10 27-4 57-31 67z m-247-33c0 29-23 52-52 52h-409c-28 0-52-23-52-52v-689c0-29 24-52 52-52h409c29 0 52 23 52 52v689z m-364-416c-4-1-9-3-14-3 0 0-1 0-1 0-2 0-5 2-5 5-1 3 1 5 3 7 7 8 14 14 20 28-27 16-44 40-44 67 0 46 52 84 116 84s117-38 117-84c0-47-52-85-117-85-10 0-20 1-29 2-14-10-29-17-46-21z m231-33c2-2 4-4 4-7-1-3-3-5-6-5-5 1-10 1-14 3-17 4-33 11-47 21-9-2-19-3-29-3-30 0-57 8-78 22 5 0 10-1 14-1 36 0 70 11 96 29 27 20 43 48 43 78 0 8-2 17-4 25 28-16 46-40 46-68 0-27-17-51-44-66 5-14 13-21 19-28z" horiz-adv-x="1000" />

<glyph glyph-name="questionnaire" unicode="&#xe92d;" d="M941 630l-51 51c-7 7-16 11-26 11-9 0-18-4-25-11l-245-245-110 110c-7 7-16 10-26 10s-18-3-25-10l-51-51c-7-7-11-16-11-25s4-19 11-26l186-186c7-7 16-11 26-11s18 4 25 11l322 322c6 6 10 16 10 25 0 9-4 19-10 25z m-355-476v-121h-429v429h111c-4 15-7 30-7 45 0 22 5 43 12 63h-224v-645h645v244c-24-12-50-18-76-18-11 0-21 1-32 3z" horiz-adv-x="1000" />

<glyph glyph-name="course-presentation" unicode="&#xe92e;" d="M869 669h-738c-42 0-79-37-79-79v-494c0-42 37-79 79-79h207v-69h324v69h207c42 0 79 37 79 79v494c0 42-32 79-79 79z m0-573h-738v488h738v-488z" horiz-adv-x="1000" />

<glyph glyph-name="interactive-content" unicode="&#xe92f;" d="M190 372c0 163 133 295 295 295s295-132 295-295c0-19-1-39-5-58 36-3 70-12 96-24 6 27 9 54 9 82 1 217-176 395-395 395-216 0-394-178-394-395s178-394 394-394c2 0 5 0 6 0l-42 102c-145 17-259 140-259 292z m234 133c71 30 155-4 184-76l53-128c12 3 24 6 36 7 6 20 9 40 9 62 0 122-99 221-221 221s-221-98-221-220c0-96 62-179 149-208l-67 158c-27 73 7 156 78 184z m450-290c-15 19-36 36-54 34-6-1-10-4-15-3-11 2-19 10-32 12-12 1-21-8-31-8s-20 9-35 8c-13-2-24-12-35-13-11-1-22 5-35 2-15-5-28-12-35-21-14 24-103 181-134 180-51-3-42-66-30-99 0 0 112-252 120-274 19-50 12-83 12-83s-90 0-119-20c-12-7-18-13-20-24-5-22 2-43 22-54 0 0 241-15 346 32 52 24 79 74 90 134 20 82 38 143-15 197z" horiz-adv-x="1000" />

<glyph glyph-name="enterfullscreen" unicode="&#xe930;" d="M103-98h91l293 293c7 6 7 13 0 19l-97 91c-7 7-13 7-20 0l-254-260-58-59 45-84z m118 130l-157 156c-13 7-19 0-19-13v-312c0-7 0-13 6-13h319c7 0 13 13 7 19l-157 163z m598 611h-91l-33-32-175-182c-7-7-7-13 0-20l91-91c6-6 13-6 19 0l176 182 58 59-45 84z m-39-52l156-156c13-6 19 0 19 7v318c0 7 0 7-6 7h-319c-6 0-13-7-6-13l156-163z" horiz-adv-x="1000" />

<glyph glyph-name="exit-full-screen" unicode="&#xe931;" d="M381 206h-80l-255-255c-6-6-6-12 0-17l79-80c6-5 12-5 17 0l222 227 51 51-34 74z m-102-113l136-137c6-5 17 0 17 6v278c0 6-6 12-11 12h-273c-6 0-11-12-6-17l137-142z m408 380h80l187 187c6 6 6 12 0 17l-79 85c-6 6-12 6-17 0l-154-158-56-57 39-74z m34 51l-136 136c-5 6-17 0-17-11v-273c0-5 6-11 12-11h272c6 0 11 11 6 17l-137 142z" horiz-adv-x="1000" />

<glyph glyph-name="add" unicode="&#xe932;" d="M1000 224c0-15-5-28-16-38s-23-16-38-16h-308v-308c0-15-5-28-15-38s-23-16-38-16h-170c-15 0-27 5-38 16s-15 23-15 38v308h-308c-15 0-28 5-38 16s-16 23-16 38v169c0 15 5 28 16 38s23 16 38 16h308v308c0 15 5 27 15 38s23 15 38 15h170c15 0 27-5 38-15s15-23 15-38v-308h308c15 0 28-5 38-16s16-23 16-38v-169z" horiz-adv-x="1000" />

<glyph glyph-name="check1" unicode="&#xe933;" d="M389 248l-226 225-163-163 389-389 611 611-163 164z" horiz-adv-x="1000" />

<glyph glyph-name="delete1" unicode="&#xe934;" d="M854 662c64-63 107-138 129-224s23-173 0-259c-22-86-65-161-129-225s-139-107-225-129c-86-22-172-22-258 0s-161 65-225 129c-64 64-107 139-129 225s-23 172 0 259c22 86 65 161 129 224s139 107 225 130c86 22 172 22 258 0 87-23 161-66 225-130z m-188-599l80 80c4 4 7 10 7 17s-3 12-7 17l-132 131 132 131c4 5 7 11 7 17s-3 13-7 18l-80 79c-5 5-11 7-17 7s-13-2-17-7l-132-131-131 131c-5 5-10 7-17 7s-12-2-17-7l-80-79c-5-5-7-11-7-18s2-12 7-17l131-131-131-131c-5-5-7-11-7-17s2-13 7-17l80-80c5-5 10-7 17-7s12 2 17 7l131 131 132-131c4-5 10-7 17-7s12 2 17 7z" horiz-adv-x="1000" />

<glyph glyph-name="metadata" unicode="&#xe935;" d="M392 257c-2 0-4 1-6 0-1 0-4-1-7-1s-5-2-8-2c-2 0-4 1-8 2-3 2-7 4-11 7s-9 4-10 5c-1 1-4 2-7 4-4 2-6 3-8 4s-5 3-7 5c-2 3-4 5-5 8 0 2-1 6-2 12-1 7-3 11-5 14-2 4-5 7-9 11s-7 5-10 5c3 0 3 2 0 7-3 5-6 8-8 10 0 1-3 3-6 7-4 4-7 7-9 10s-5 7-6 10c-2 4-3 7-1 9 0 1 0 1-2 2s-2 1-4 2c-1 1-3 1-4 2s-3 1-3 1c0-2 1-4 2-8s2-7 3-8c1-2 4-7 9-16 9-15 13-26 13-33-2 0-4 0-5 2s-1 3-1 5c-1 3-1 5-1 6-1 2-4 4-9 6s-7 5-8 8c1 0 1 0 1 0s1 1 2 1c0 3-2 7-6 12-4 5-6 9-5 11-3 2-5 6-7 12s-4 10-6 12c-1 2-3 4-5 6s-5 3-8 5c-3 2-5 3-6 4-1 0-2 2-4 5-12 14-16 21-11 22-5-1-9 3-11 11-3 8-4 14-3 18l-1 0c0 2 0 6 0 13s1 13 1 19c1 5 3 8 5 8-2 0-4 2-5 7-1 4-1 8 0 9 0 2 2 1 4-2 3-2 5-4 5-4 5 2 6 5 5 9 0 2-4 5-11 11-15 10-23 15-23 15 2 4 1 7-2 10-3-2-5-3-6-2s-1 3-1 6c-1 3-1 4-3 5-2 0-4 1-6 4 31 50 73 89 124 118 3 0 6 0 12 0 3 0 6-1 8-3s5-3 8-5c3-3 5-5 6-6 1 3 0 6-3 10 1 2 5 4 12 6 8 1 13 1 16 0-2 3-6 7-11 13l-2-3c-3 3-11 2-23-4 0 0-2-1-5-2-3-2-5-3-7-4-2-1-4-1-6 0 17 9 34 16 50 21 1 0 3-2 5-4 3-2 4-4 6-5-1 1-2 0-2-1-2-5-2-8 0-11 1-2 4-4 7-4s6 0 11 0c4 1 7 1 8 1l5 0c12-1 16 0 14 3 1-1 2-4 3-9s3-7 5-9c2 2 2 4 1 8-1 3-1 5 0 7 0 1 2 1 3 2s4 2 6 2c3 1 4 2 5 2 2 2 1 4-4 8-1 0-3 1-5 1s-4 2-6 2c-2 1-4 2-6 3s-2 3-2 5c0 1 1 3 3 6 2 2 5 2 10 2s8-1 11-3c9-5 11-10 4-14 4 0 8-2 13-4 5-3 7-5 6-8 2 5 5 8 8 8 2-1 3-3 5-8s3-6 3-7c3-4 6-4 8-3 3 3 6 6 9 10 3 4 5 6 5 5-3 2-4 3-1 5 6 3 10 4 15 2 1 0 2-2 4-4 3-7 3-10-2-9 3-3 5-7 4-11s-3-6-8-6c-2 0-4 1-8 3s-6 3-8 3c-1 0-4-1-7-3-1-2-3-5-6-9s-4-7-6-9c-5-5-14-7-26-6 1 0 1-1 0-3-2-2-3-5-5-7s-4-5-4-5c-4-3-5-7-7-12 0-1 0-3 0-7s-1-8-2-10c4 2 7-1 10-6 2-5 2-7 0-8 12 2 22 1 31-2 12-4 20-9 21-14 3 4 8 4 16 1 3-2 6-7 8-16 2-5 4-10 8-14 3-4 7-5 10-3l2 1c1 1 2 1 3 2s2 1 3 2c1 1 2 2 2 2s0 2-1 3c-2 2-4 5-5 8s-1 7 0 10c2 2 4 4 9 6 4 3 7 6 8 9 2 4 0 8-5 11-5 3-7 6-7 9 0 1 1 4 3 6 3 2 3 5 3 7 0 1 0 3-2 6s-2 6-2 8c0 1 1 3 3 5 2 2 8 2 17 0 9-1 15-3 18-5 1-1 3-2 7-3 4-1 7-3 9-5 3-1 4-3 5-4h-3c2-2 4-5 4-7s0-5-4-7c3 1 5 0 9-1 6-3 6-5 0-6 2 0 3 1 5 1s3 1 4 2c1 0 2 0 3 1s2 2 3 2c0 0 1 0 2 1s2-1 3-1c0 0 1 1 2 3s3 3 4 5c2 2 3 2 4 2s2 0 3-1c1-1 2-2 2-3s1-2 2-3c0-1 1-2 1-3 1-2 2-4 5-6s5-3 5-5c1-1 1-4 2-8 2-4 3-7 5-9s4-3 8-4c0 0 2 0 4 1 3 0 5 0 7 0s2-2 2-4c2 2 3 3 3 4 0-4 2-8 4-11s5-4 9-4l-1-12c-1-1-4-3-8-4-5 0-7-1-8-2-1 0-4-2-8-6-4-4-6-6-5-7-6 7-15 9-27 6-14-2-23-5-28-7-5-2-9-5-11-8-1 0-1-1-2-3s-2-4-3-6c-1-2-2-3-2-3 2 1 4 2 7 5s4 5 5 5c9 6 17 8 23 7 7-3 9-5 4-9-1-1-3-1-6-1s-5 0-6 0c3 0 6-1 8-3s2-3 1-5c6-3 7-6 4-10-5-5-11-7-17-6 1 0 1-1 0-2l-9-6c-1 0-3-1-7-3-4-1-6-3-8-4-1-2-1-4-1-7 0-3 0-5-1-6s-2-2-4-1c-1-2-4-4-10-5s-9-3-11-6c2-3 2-5 0-8-5-4-8-4-11 1-2-1-3-3-4-5-1-3-3-5-4-6 2-4 2-7-1-9 0 0 1 0 2-1s2-1 4-2c1-2 2-2 3-2-2-3-4-5-6-5 2-5-1-12-8-18-2-2-4-3-7-5s-6-2-8-3c-3-1-4-2-4-2-4-3-7-6-8-10-2-3-2-6-1-9 1-4 4-6 10-7l0-3c64 48 143 76 228 76 41 0 80-6 116-17-4 63-22 122-54 176-36 63-86 112-148 149s-131 54-205 54c-74 0-142-18-204-54s-112-86-148-149c-37-62-55-130-55-204 0-74 18-142 55-204s86-112 148-149c38-22 79-37 121-46-3 21-5 43-5 65 1 69 20 134 52 190z m77 116c-2-2-3-3-4-4s-2 0-3 0c-1 1-1 1-3 3s-3 2-4 2c-1 1-5 2-9 3-4 1-7 2-8 3-9-7-14-5-16 5 0-2 0-5 1-8 1-3 1-4 1-5-3-4-6-5-12-1-2 2-7 2-14 1-8-2-13-2-15-1 0 0 1-1 2-1 1-1 1-2 2-2-1-2-1-3-2-3s-1-1-2-1c-1 0-1 0-2 0s-2 0-3-1c-1-1-3-3-5-5s-4-5-5-5c3-6 3-10 3-13s0-8-1-14c-1-5-2-10-2-14 0-5 2-12 5-19s8-13 12-16c3-1 7-2 13-2 2-1 4-1 6-1 20 31 44 59 72 83 0 1 0 2 0 3-1 4-3 8-7 13z m-86-2c0 0 0 0 0 0 0 0 0 0 0 0z m560-176c23-39 35-82 35-129s-12-89-35-129c-22-39-54-70-93-94-40-22-83-34-129-34s-90 12-129 34c-40 23-71 55-94 94-23 39-35 83-35 129s12 90 35 129c23 40 54 71 94 94 39 23 82 35 129 35s89-12 129-35c39-23 71-54 93-94z m-136-289v53c0 3-2 6-4 8s-4 3-7 3h-32v171c0 3-1 6-3 8s-5 3-8 3h-107c-3 0-6-1-8-3s-3-4-3-8v-53c0-3 1-6 3-8s5-3 8-3h32v-107h-32c-3 0-6-1-8-3s-3-5-3-8v-53c0-4 1-6 3-8s5-3 8-3h150c3 0 6 1 8 3 2 2 3 4 3 8z m-43 300v53c0 3-1 6-3 8s-5 3-8 3h-64c-3 0-6-1-8-3s-3-5-3-8v-53c0-3 1-6 3-8s4-3 8-3h64c3 0 6 1 8 3 2 2 3 5 3 8z m-43-398c-47 0-90 12-130 35s-71 54-94 94c-23 39-34 83-34 130s11 90 34 129c23 39 55 71 94 94 40 23 83 35 130 35s90-12 129-35c40-23 71-54 94-94v0c23-39 35-83 35-129s-12-91-35-130c-23-39-54-71-94-94-39-23-83-35-129-35z m0 515c-46 0-90-12-129-35s-70-54-93-93c-23-39-34-82-34-128s11-90 34-129c23-39 54-71 93-93s82-35 129-35c46 0 89 12 128 35s71 54 94 93c22 39 34 82 34 129 0 46-12 89-34 128v0c-23 39-54 71-94 93-39 23-82 35-128 35z m75-429h-150c-4 0-6 1-9 3s-3 5-3 9v53c0 4 1 6 3 8s6 4 9 4h31v105h-31c-4 0-6 1-9 3s-3 5-3 9v53c0 4 1 6 3 9s6 3 9 3h107c3 0 6-1 8-3s3-5 3-9v-170h32c3 0 6-1 8-3s3-5 3-9v-53c0-4-1-6-3-9-2-2-5-3-8-3z m-150 75c-3 0-5-1-7-3s-3-4-3-7v-53c0-3 1-6 3-8s4-2 7-2h150c3 0 5 1 7 2s3 5 3 8v53c0 3-1 5-3 7s-4 3-7 3h-33v172c0 3-1 6-3 7s-4 3-7 3h-107c-3 0-5-1-7-3s-3-4-3-7v-53c0-3 1-5 3-7s4-3 7-3h33v-109h-33z m107 225h-64c-4 0-6 1-9 3s-3 5-3 9v53c0 4 1 6 3 8s5 4 9 4h64c3 0 6-1 8-4s3-5 3-8v-53c0-4-1-7-3-9s-5-3-8-3z m-64 75c-3 0-6-1-7-3s-3-4-3-7v-53c0-3 1-5 3-7s4-3 7-3h64c3 0 5 1 7 3s3 4 3 7v53c0 3-1 6-3 7s-4 3-7 3h-64z" horiz-adv-x="1000" />

<glyph glyph-name="edit" unicode="&#xe936;" d="M555 613c5 5 11 8 18 8s11-3 15-8l217-216c5-4 8-10 8-16s-3-12-8-18l-512-511-238-43c-15-3-29 2-41 14s-16 25-13 41l43 238 511 511z m-383-632v93h-70l-23-124 62-63 125 23v71h-94z m71 164c5-5 12-8 19-8s15 3 20 8l300 300c5 5 8 12 8 20s-3 14-8 19c-5 6-11 8-19 8s-14-2-20-8l-300-300c-5-5-8-12-8-20s3-14 8-19z m730 386c18 18 27 41 27 67s-9 48-27 66l-117 117c-19 18-41 27-67 27s-48-9-66-27l-90-90c-5-5-8-11-8-17s3-12 8-16l217-216c4-6 9-8 15-8s13 2 18 8l90 89z" horiz-adv-x="1000" />

<glyph glyph-name="details-arrow" unicode="&#xe937;" d="M500 829l-88-88 349-349h-761v-125h761l-349-350 88-88 500 500z" horiz-adv-x="1000" />

<glyph glyph-name="check2" unicode="&#xe938;" d="M889 829h-778c-61 0-111-50-111-111v-778c0-61 50-111 111-111h778c61 0 111 50 111 111v778c0 61-50 111-111 111z m-500-778l-278 278 78 78 200-200 422 422 78-78-500-500z" horiz-adv-x="1000" />

<glyph glyph-name="plus1" unicode="&#xe939;" d="M583 413v416h-166v-416h-417v-167h417v-417h166v417h417v167z" horiz-adv-x="1000" />

<glyph glyph-name="close1" unicode="&#xe93a;" d="M1000 729l-101 100-399-399-399 399-101-100 399-400-399-399 101-101 399 400 399-400 101 101-399 399z" horiz-adv-x="1000" />

<glyph glyph-name="hub-icon1" unicode="&#xe93b;" d="M232 626l37-63c5-11 16-17 28-17h65l38-69 9 14c4 6 9 9 20 11l14 2-39 69 30 53c6 11 6 22 0 32l0 0-36 64c-6 10-16 17-28 17h-73c-12 0-23-7-28-17l-37-64c-5-10-5-21 0-32l0 0z m49 16l25 46h52l27-46-27-46h-52l-25 46z m300-143c9-3 16-8 20-14l9-11 42 69 57-2c14 0 24 6 30 16l39 62c5 11 5 22 0 32l-35 64-1 1c-5 8-15 16-27 16l-71 2c-14 0-24-6-30-17l-39-62c-5-10-5-21 0-32l32-57-37-62 11-5z m43 140l27 44 52-1 26-46-27-44-52 1-26 46z m321-279l0 0-36 64c-1 3-4 7-13 13-5 2-11 6-15 6h-73c-12 0-23-7-28-17l-32-56-78 2 6-14c3-8 3-15 0-24l-5-13 78-2 31-54c5-11 16-17 28-17h73c12 0 22 6 28 17l36 63c6 11 6 22 0 32z m-46-14l-27-46h-53l-25 46 27 46h52l26-46z m-146-245c-10 17-20 34-20 34l-1 0 0 1c-6 8-14 15-27 15h-62l-35 62-9-12c-4-6-12-10-20-11l-14-3 34-61-31-55c-6-11-6-22 0-32l0 0 38-62c5-10 16-17 28-17h73c12 0 23 7 28 17l34 58 1 1 0 1c0 1 1 2 1 3 2 6 5 15 3 22 0 4-3 9-21 39z m-30-46l-27-46h-52l-27 46 27 46h52l27-46z m-302 135c-9 4-16 9-20 14l-9 11-42-68-59 1c-14 0-24-6-30-16l-39-62c-5-11-5-22 0-32l35-64 1-1c5-8 15-16 27-16l73-2c14 0 24 6 30 17l39 62c5 10 5 21 0 32l-32 58 37 61-11 5z m-43-140l-27-44-52 2-26 45 27 45 52-2 26-46z m-154 217l31 54 78-2-4 13c-4 9-4 17-1 24l6 13-78 2-32 55c-5 10-16 17-28 17h-73c-12 0-22-7-28-17l-36-64c-6-10-6-21 0-32l0 0 36-61c3-7 10-13 19-17 2-1 6-2 9-2h73c12 0 23 6 28 17z m-14 79l-27-46h-52l-25 46 27 46h52l25-46z m382-121l0 0 58 101c8 11 8 26 0 37l-58 100-1 1c-8 10-20 17-32 17h-116c-10 0-19-3-26-11-2-2-3-4-4-5 0 0 0 0 0 0l-1-1-58-101c-8-11-8-27 0-38l58-99c5-11 18-18 31-18h118c11 0 22 6 31 17z m7 121l-50-86h-100l-50 86 50 87h100l50-87z" horiz-adv-x="1000" />

<glyph glyph-name="info1" unicode="&#xe93c;" d="M728-34c-1 25-21 45-46 46h-45v409c-1 25-21 45-46 45h-272c-25 0-46-21-47-46v-90c1-26 21-45 46-46h46v-273h-45c-25 0-45-20-46-46v-90c1-25 21-45 46-46h363c25 1 45 21 46 46v91z m-105 850c-8 8-19 13-32 13h-181c-25 0-45-20-46-45v-137c1-25 21-45 46-45h182c25 1 44 21 45 45v137c0 12-5 23-14 32z" horiz-adv-x="1000" />

<glyph glyph-name="examples_2" unicode="&#xe93d;" d="M441 663l29 62 60 31-60 32-29 62-30-62-59-32 59-31z m-268-125l50 104 99 52-99 52-50 104-49-104-99-52 99-52z m654-250l-50-105-99-52 99-52 50-104 49 104 99 52-99 52z m131 378l-158 166c-11 12-27 18-42 18s-30-6-42-18l-674-710c-23-24-23-64 0-88l158-166c11-12 27-18 42-18 15 0 30 6 42 18l674 710c23 24 23 64 0 88z m-266-213l-94 99 160 169 95-99z" horiz-adv-x="1000" />

<glyph glyph-name="tutorials_2" unicode="&#xe93e;" d="M456 577c-116 74-303 94-398 100-31 2-58-24-58-55v-456c0-29 23-53 52-55 85-5 258-22 377-85 18-9 40 4 40 25v502c0 10-5 19-13 24z m486 100c-95-6-282-26-398-100-8-5-13-15-13-24v-502c0-21 22-34 40-25 120 63 292 80 377 85 29 2 52 26 52 55v456c0 31-26 57-58 55z" horiz-adv-x="1000" />

<glyph glyph-name="in-progress" unicode="&#xe93f;" d="M278 43c0 41-35 74-77 74s-77-33-77-74c0-40 34-74 77-74 20 0 40 8 54 22 15 14 23 33 23 52z m276-67c-30 29-78 29-108 0s-30-75 0-104c30-29 78-29 108 0 14 14 22 33 22 52 1 19-7 38-22 52z m-423 409c-30 29-78 29-108 0s-31-76 0-105c14-14 34-22 54-22 42 0 77 34 77 74 0 20-9 39-23 53z m722-289c-30 29-78 29-108 0-29-29-29-76 1-105 30-28 77-28 107 1 14 14 22 32 22 52 1 19-7 38-22 52z m-584 589c-37 36-98 36-135 0l-1 0c-37-37-37-95 0-131v0c38-36 98-36 136 1l1 1c35 35 35 92-1 129z m709-302c-30 29-79 29-109 0s-30-76 0-105c30-29 79-29 109 0 14 14 22 33 22 53 1 20-7 40-23 54z m-396 434c-45 44-118 44-164 1-21-21-33-49-34-78 0-61 52-111 116-111 30 0 60 12 81 32 22 21 35 50 34 79 1 30-11 58-33 79z m312-104c-52 51-137 52-190 2-27-24-41-59-41-94-1-72 59-131 133-132 37 0 72 14 98 40 52 50 53 132 1 182 0 1-1 1-1 2z" horiz-adv-x="1000" />

<glyph glyph-name="confirm-1" unicode="&#xe940;" d="M932 600c-46 77-109 141-182 182-77 45-164 68-250 68s-173-23-250-68-141-109-182-182c-45-77-68-164-68-250s23-173 68-250 109-141 182-182c77-45 164-68 250-68s173 23 250 68 141 109 182 182c45 77 68 164 68 250s-23 173-68 250z m-46-473c-36-63-95-122-163-163s-146-60-223-60-154 19-223 60c-68 36-122 91-163 163-41 69-59 146-59 223s18 155 59 223c36 68 91 123 163 163 69 41 146 60 223 60s155-19 223-60c63-36 123-95 163-163s60-146 60-223-19-154-60-223z m-452 124l-109 109-36-41 145-145 314 314-37 36-277-273z" horiz-adv-x="1000" />

<glyph glyph-name="drag-and-drop-1" unicode="&#xe991;" d="M612 186h-385c-42 0-78 37-78 78v281c0 42 36 78 78 78h380c41 0 78-36 78-78v0-281c5-47-32-78-73-78z m-385 390c-16 0-31-15-31-31v0-281c0-15 15-31 31-31h380c15 0 31 16 31 31v281c0 16-16 31-31 31h-380z m494-582h-68v47h68v-47z m-140 0h-68v47h68v-47z m-141 0h-52c-10 0-21 0-26 5l16 47c5 0 5 0 10 0h52v-52z m359 5l-16 47c16 5 21 15 21 31h47c0-36-21-68-52-78z m-437 78h-47v68h47v-68z m489 68h-47v67h47v-67z m0 140h-47v68h47v-68z m-68 104c-5 0-5 0-10 0h-52v47h52c10 0 21 0 26-5l-16-42z" horiz-adv-x="1000" />

<glyph glyph-name="summary-1" unicode="&#xe992;" d="M851 635h-702c-14 0-26-11-26-25v-52c0-14 12-26 26-26h702c14 0 26 12 26 26v52c0 14-12 25-26 25z m0-165h-545c-14 0-26-12-26-26v-52c0-14 12-25 26-25h545c14 0 26 11 26 25v52c0 14-12 26-26 26z m0-193h-545c-14 0-26-12-26-26v-51c0-14 12-26 26-26h545c14 0 26 12 26 26v51c0 14-12 26-26 26z m0-193h-545c-14 0-26-11-26-25v-52c0-14 12-26 26-26h545c14 0 26 12 26 26v52c0 14-12 25-26 25z m-654 386h-48c-14 0-26-12-26-26v-52c0-14 12-25 26-25h48c14 0 26 11 26 25v52c0 14-12 26-26 26z m0-193h-48c-14 0-26-12-26-26v-51c0-14 12-26 26-26h48c14 0 26 12 26 26v51c0 14-12 26-26 26z m0-193h-48c-14 0-26-11-26-25v-52c0-14 12-26 26-26h48c14 0 26 12 26 26v52c0 14-12 25-26 25z" horiz-adv-x="1000" />

<glyph glyph-name="single-choice-set-1" unicode="&#xe993;" d="M801 366h-405c-16 0-28-13-28-29v-57c0-15 12-28 28-28h405c16 0 29 13 29 28v57c0 16-13 29-29 29z m72-228h-477c-16 0-28-13-28-28v-57c0-16 12-29 28-29h477c16 0 29 13 29 29v57c0 15-13 28-29 28z m15 456h-492c-16 0-28-13-28-29v-57c0-16 12-28 28-28h492c16 0 28 12 28 28v57c0 16-12 29-28 29z m-703 8c36 0 66-29 66-65s-30-66-66-66c-36 0-65 29-65 66s29 65 65 65z m0 30c-52 0-95-43-95-95s43-96 95-96c53 0 95 43 95 96s-42 95-95 95v0z m0-486c36 0 66-30 66-66s-30-65-66-65c-36 0-65 29-65 65s29 66 65 66z m0 29c-52 0-95-42-95-95s43-95 95-95c53 0 95 43 95 95s-42 95-95 95v0z m102 135c0-56-46-102-102-102s-101 46-101 102c0 56 45 101 101 101s102-45 102-101z" horiz-adv-x="1000" />

<glyph glyph-name="fill-in-the-blanks-1" unicode="&#xe994;" d="M871 146h-158c-16 0-30-14-30-30v-59c0-17 14-30 30-30h158c16 0 30 13 30 30v59c0 16-14 30-30 30z m-472 222h-275c-17 0-30-14-30-30v-59c0-17 13-30 30-30h275c17 0 30 13 30 30v59c0 16-13 30-30 30z m445 0c16 0 30-14 30-30v-59c0-17-14-30-30-30h-316c-16 0-30 13-30 30v59c0 16 14 30 30 30h316z m0 32h-316c-34 0-62-28-62-62v-59c0-35 28-62 62-62h316c34 0 62 27 62 62v59c0 34-28 62-62 62v0z m-254-254c17 0 30-14 30-30v-59c0-17-13-30-30-30h-262c-16 0-30 13-30 30v59c0 16 14 30 30 30h262z m0 32h-262c-34 0-62-28-62-62v-59c0-35 28-63 62-63h262c35 0 62 28 62 63v59c0 34-27 62-62 62v0z m-12 412c16 0 30-14 30-30v-59c0-17-14-30-30-30h-141c-16 0-29 13-29 30v59c0 16 13 30 29 30h141z m0 32h-141c-34 0-62-28-62-62v-59c0-35 28-62 62-62h141c34 0 62 27 62 62v59c0 34-28 62-62 62v0z m-454-151h176c16 0 29 13 29 30v59c0 16-13 30-29 30h-176c-17 0-30-14-30-30v-59c0-17 13-30 30-30z m584 0h164c17 0 30 13 30 30v59c0 16-13 30-30 30h-164c-16 0-29-14-29-30v-59c0-17 13-30 29-30z m-584-444h78c16 0 30 13 30 30v59c0 16-14 30-30 30h-78c-17 0-30-14-30-30v-59c0-17 13-30 30-30z" horiz-adv-x="1000" />
</font>
</defs>
</svg>
=======
<!DOCTYPE svg PUBLIC "-//W3C//DTD SVG 1.1//EN" "http://www.w3.org/Graphics/SVG/1.1/DTD/svg11.dtd" >
<svg xmlns="http://www.w3.org/2000/svg" xmlns:xlink="http://www.w3.org/1999/xlink" version="1.1">
<metadata>
Created by FontForge 20230101 at Fri Apr 12 21:40:06 2024
 By John Smith
H5P
</metadata>
<defs>
<font id="h5p-core-27" horiz-adv-x="1024" >
  <font-face 
    font-family="h5p-core-27"
    font-weight="400"
    font-stretch="normal"
    units-per-em="1024"
    panose-1="0 0 0 0 0 0 0 0 0 0"
    ascent="960"
    descent="-64"
    bbox="-19 -107 3122 960"
    underline-thickness="0"
    underline-position="0"
    unicode-range="U+0001-FFFD"
  />
<missing-glyph 
 />
    <glyph glyph-name=".notdef" unicode="&#xfffd;" 
 />
    <glyph glyph-name="uni0000" horiz-adv-x="0" 
d="M0 0v0v0v0z" />
    <glyph glyph-name="uni0001" horiz-adv-x="0" 
d="M0 0v0v0v0z" />
    <glyph glyph-name="space" unicode=" " horiz-adv-x="512" 
d="M0 0v0v0v0z" />
    <glyph glyph-name="uniE565" unicode="&#xe565;" 
d="M234 544h556l-278 -278z" />
    <glyph glyph-name="uniE566" unicode="&#xe566;" 
d="M381 143v524l262 -262z" />
    <glyph glyph-name="uniE58E" unicode="&#xe58e;" 
d="M512 563l256 -256l-60 -60l-196 196l-196 -196l-60 60z" />
    <glyph glyph-name="uniE58F" unicode="&#xe58f;" 
d="M708 563l60 -60l-256 -256l-256 256l60 60l196 -196z" />
    <glyph glyph-name="uniE600" unicode="&#xe600;" 
d="M387 832h71v-72h-71v72zM566 832h71v-72h-71v72zM387 675h71v-71h-71v71zM566 675h71v-71h-71v71zM387 519h71v-71h-71v71zM566 519h71v-71h-71v71zM387 363h71v-71h-71v71zM566 363h71v-71h-71v71zM387 206h71v-71h-71v71zM566 206h71v-71h-71v71zM387 50h71v-71h-71v71
zM566 50h71v-71h-71v71z" />
    <glyph glyph-name="uniE601" unicode="&#xe601;" 
d="M454 374l-117 117l-84 -85l201 -202l317 318l-84 84z" />
    <glyph glyph-name="uniE602" unicode="&#xe602;" 
d="M665 368q-9 12 -21 18.5t-27 6.5q-16 0 -28 -8t-20 -16h-2q1 8 0.5 16.5t-0.5 14.5v51h-50v-234h41l8 20h3q9 -15 20.5 -18.5t26.5 -3.5t27 5.5t21 17.5q9 11 13.5 27.5t4.5 37.5t-4.5 37t-12.5 28v0zM626 265q-4 -6 -10 -9.5t-13 -3.5q-9 0 -16 3t-11 9t-6.5 16t-2.5 23
v5q0 13 2.5 21.5t6.5 13.5q4 6 11 8.5t15 2.5t13.5 -3t10.5 -10q4 -6 6 -15.5t2 -21.5q0 -13 -2 -22.5t-6 -16.5zM793 252q7 0 13.5 1t11.5 3q6 1 11 4t12 7v-40q-7 -3 -12 -5.5t-11 -4.5q-5 -1 -12.5 -1.5t-16.5 -0.5q-39 0 -59 21.5t-20 65.5q0 22 5.5 38.5t15.5 27.5
q11 12 26.5 17.5t36.5 5.5q14 0 27.5 -3t24.5 -9l-13 -36q-6 3 -11 4.5t-10 3.5q-4 1 -9 1.5t-9 0.5q-19 0 -28 -12.5t-9 -38.5q0 -25 9 -37.5t27 -12.5v0zM443 378q-9 7 -20 11t-28 4q-18 0 -34.5 -4t-30.5 -12l15 -31q14 6 25.5 9t21.5 3q13 0 19 -6.5t6 -19.5v-7l-28 -1
q-19 -1 -33 -4.5t-23 -9.5q-10 -7 -14.5 -17t-4.5 -24q0 -12 3.5 -22.5t10.5 -17.5t16.5 -10.5t22.5 -3.5q10 0 18 0.5t14 3.5t12.5 7t11.5 12h2l9 -20h23v114q0 16 -2.5 27t-11.5 19v0zM417 284q0 -8 -2 -14t-6 -11q-5 -5 -11 -7t-14 -2q-11 0 -16.5 5t-5.5 14q0 7 2.5 12
t7.5 9q5 3 11.5 5t16.5 2l17 1v-14v0zM904 489q6 0 10.5 -4.5t4.5 -10.5v-291q0 -6 -4.5 -10t-10.5 -4h-622q-6 0 -10 4t-4 10v291q0 6 4 10.5t10 4.5h622zM904 525h-622q-21 0 -36 -15t-15 -36v-291q0 -21 15 -36t36 -15h622q21 0 36 15t15 36v291q0 21 -15 36t-36 15v0z
M252 266h-66v33h66v-33zM134 266h-36q-12 0 -20.5 8.5t-8.5 20.5v10h32v-6h33v-33v0zM101 370h-32v66h32v-66zM101 501h-32v66h32v-66v0zM761 512h-33v65h33v-65v0zM101 632h-32v17q0 13 8.5 21.5t20.5 8.5h28v-33h-25v-14v0zM728 646h-25v33h28q12 0 20.5 -8.5t8.5 -21.5
v-17h-32v14v0zM650 646h-66v33h66v-33zM519 646h-66v33h66v-33zM388 646h-66v33h66v-33zM257 646h-66v33h66v-33z" />
    <glyph glyph-name="uniE603" unicode="&#xe603;" 
d="M531 436q-11 0 -18.5 -3.5t-12.5 -10.5q-5 -6 -7 -17t-2 -27v-6q0 -18 2 -30.5t7 -19.5q5 -8 13 -11.5t19 -3.5q9 0 16 4t13 13q5 8 7.5 20t2.5 28t-2.5 28t-8.5 20q-5 8 -12.5 12t-16.5 4zM646 624h-249q-32 0 -55.5 -23t-23.5 -54v-270q0 -32 23.5 -61.5t55.5 -29.5
h249q32 0 54.5 23t22.5 55v283q0 31 -22.5 54t-54.5 23v0zM609 288q-11 -14 -26.5 -21t-34.5 -7t-34 4.5t-25 23.5h-4l-10 -25h-48v296h64v-65q0 -7 -2 -17t-3 -20h2q11 10 26 19.5t36 9.5q19 0 34 -8t26 -23q10 -15 15.5 -36t5.5 -47q0 -27 -5.5 -48t-16.5 -36v0zM874 310
q9 0 16.5 1t14.5 3t13 5.5t15 8.5v-50q-9 -4 -15 -7t-13 -5t-16 -3t-20 -1q-50 0 -75 27.5t-25 82.5q0 27 7 47.5t20 35.5q14 14 33.5 21t44.5 7q19 0 35.5 -3.5t31.5 -10.5l-18 -45q-6 3 -12.5 5t-12.5 4t-12 3t-12 1q-23 0 -34 -16.5t-11 -48.5q0 -31 11 -46.5t34 -15.5v0
zM244 480q-11 10 -24.5 14.5t-35.5 4.5t-42.5 -5t-38.5 -14l19 -40q17 8 31.5 12t27.5 4q16 0 23.5 -8t7.5 -25v-9l-35 -1q-24 -1 -41 -5.5t-29 -12.5t-18 -20.5t-6 -29.5q0 -16 4.5 -29t13.5 -22q9 -8 21 -13t28 -5q12 0 22 1.5t18 4.5q8 4 15.5 9.5t14.5 14.5h2l11 -24h28
v141q0 20 -2.5 34t-14.5 23v0zM212 363q0 -10 -2 -17.5t-8 -13.5t-13.5 -9t-17.5 -3q-14 0 -21 6t-7 19q0 8 3.5 14.5t9.5 10.5t14.5 6.5t20.5 2.5l21 1v-17v0z" />
    <glyph glyph-name="uniE604" unicode="&#xe604;" 
d="M284 691l-127 -127q-2 -2 -5 -3.5t-5 -1.5q-3 0 -5.5 1.5t-4.5 3.5l-74 74q-2 2 -3 4.5t-1 5.5q0 2 1 5t3 5l20 20q2 2 4.5 3t5.5 1t5.5 -1t4.5 -3l44 -44l97 98q2 2 4.5 3t5.5 1t5.5 -1t4.5 -3l20 -21q2 -2 3.5 -4.5t1.5 -5.5q0 -2 -1.5 -5t-3.5 -5v0zM249 341l-21 -22
q-2 -2 -5 -3t-5 -1q-3 0 -6 1t-5 3l-46 46l-46 -46q-2 -2 -5 -3t-6 -1t-5.5 1t-4.5 3l-22 22q-2 2 -3 4.5t-1 5.5t1 6t3 5l46 46l-46 46q-2 2 -3 4.5t-1 5.5t1 6t3 5l22 21q2 2 4.5 3.5t5.5 1.5t6 -1.5t5 -3.5l46 -46l46 46q2 2 4.5 3.5t5.5 1.5t6 -1.5t5 -3.5l21 -21
q2 -2 3.5 -5t1.5 -6t-1.5 -5.5t-3.5 -4.5l-46 -46l46 -46q2 -2 3.5 -5t1.5 -6t-1 -5.5t-4 -5.5v1zM249 101l-21 -22q-2 -2 -5 -3t-5 -1q-3 0 -6 1t-5 3l-46 46l-46 -46q-2 -2 -5 -3t-6 -1q-2 0 -5 1t-5 3l-22 22q-2 2 -3 4.5t-1 5.5t1 6t3 5l46 46l-46 46q-2 2 -3 5t-1 5
q0 3 1 6t3 5l22 21q2 2 4.5 3.5t5.5 1.5t6 -1.5t5 -3.5l46 -46l46 46q2 2 4.5 3.5t5.5 1.5t6 -1.5t5 -3.5l21 -21q2 -2 3.5 -5t1.5 -6t-1.5 -5.5t-3.5 -4.5l-46 -46l46 -46q2 -2 3.5 -5t1.5 -6t-1 -5.5t-4 -4.5v0zM965 612q0 -15 -10.5 -26t-25.5 -11h-581q-15 0 -26 11
t-11 26v26q0 15 11 25.5t26 10.5h581q15 0 25.5 -10.5t10.5 -25.5v-26zM965 386q0 -15 -10.5 -26t-25.5 -11h-581q-15 0 -26 11t-11 26v26q0 15 11 25.5t26 10.5h581q15 0 25.5 -10.5t10.5 -25.5v-26zM965 160q0 -15 -10.5 -26t-25.5 -11h-581q-15 0 -26 11t-11 26v26
q0 15 11 26t26 11h581q15 0 25.5 -11t10.5 -26v-26z" />
    <glyph glyph-name="uniE888" unicode="&#xe888;" 
d="M513 668q-55 0 -104 -21q-48 -22 -83 -58.5t-55 -85.5q-19 -49 -18 -105q0 -47 16 -89q16 -43 43.5 -77t66.5 -57q38 -23 83 -32v214h-93q-10 0 -11 5.5t2 12.5l139 172q4 7 10.5 7.5t13.5 -2.5l2 -2.5l2 -2.5l140 -172q7 -7 4 -12.5t-14 -5.5h-93v-214q54 12 97 43
q42 30 69 73t37 94q9 52 -3 106q-9 45 -32 83q-23 37 -56.5 64.5t-75.5 43.5q-41 16 -87 18v0z" />
    <glyph glyph-name="uniE889" unicode="&#xe889;" 
d="M512 666q-54 0 -101 -21q-48 -20 -83 -55.5t-56 -82.5q-20 -48 -20 -102t20 -101q21 -48 56 -83t83 -56q47 -20 101 -20t101 20q48 21 83 56t56 83q20 47 20 101v0q0 53 -20 99q-21 47 -56 82t-83 57q-47 21 -101 23v0zM470 614h88v-69h-88v69zM600 224h-181v51h51v163
h-51v51h139v-218h47l-5 -47v0z" />
    <glyph glyph-name="uniE88A" unicode="&#xe88a;" 
d="M769 202l-110 111q27 37 36 81q10 44 3 87t-29 81q-23 39 -60 66q-38 27 -81 36q-44 8 -87 0.5t-82 -31.5q-39 -23 -66 -60q-27 -38 -36 -82q-10 -43 -3 -86.5t29 -81.5q23 -39 60 -66q58 -41 130 -41t130 41l111 -111q4 -4 8 -4t9 4v0v0l33 34q8 4 8.5 11t-3.5 11v0v0v0
zM476 279q-66 0 -113.5 47t-47.5 114q0 66 47.5 113t113.5 47t113 -47t47 -113q0 -67 -47 -114t-113 -47v0v0z" />
    <glyph glyph-name="uniE88C" unicode="&#xe88c;" 
d="M357 552q4 4 1.5 4.5t-7.5 0.5l-103 12q-4 4 -7.5 1t-3.5 -7l11 -109q0 -4 3 -5l3 -1l103 104v0zM282 489l64 -64q4 -4 8.5 -4t8.5 4l23 23q4 5 4 9t-4 9l-63 57l-41 -34v0zM776 448q4 -4 5 -1t1 7l11 109q0 4 -3.5 8t-7.5 4l-109 -12q-5 0 -5.5 -3l-0.5 -3zM713 523
l-63 -63q-5 -4 -5 -8.5t5 -8.5l23 -23q4 -5 8.5 -5t8.5 5l63 63l-40 40v0zM678 242q-4 -5 -1 -5.5t7 -0.5l109 -11q4 0 8 3.5t4 7.5l-18 103q0 5 -2.5 5.5l-2.5 0.5zM747 311l-63 63q-4 4 -8.5 4t-8.5 -4l-23 -23q-4 -4 -4 -8.5t4 -8.5l63 -64l40 41v0zM254 345
q-5 4 -5.5 1.5t-0.5 -7.5l-11 -109q0 -4 3.5 -7.5t7.5 -3.5l109 11q4 0 5 3l1 3l-109 109v0zM323 270l63 64q4 4 4 8.5t-4 8.5l-23 23q-4 4 -8.5 4t-8.5 -4l-64 -63zM151 655v-499h722v499h-722zM833 196h-637v413h637v-413z" />
    <glyph glyph-name="uniE88E" unicode="&#xe88e;" 
d="M891 553q-16 13 -38 20.5t-51 7.5h-139v-67h-157l-11 -56q9 5 20 8t19 3h17h17q25 0 48.5 -8t40.5 -25t25.5 -38t8.5 -46q0 -16 -4.5 -33t-12.5 -34q-9 -16 -21.5 -28.5t-28.5 -21.5q-5 -4 -12 -3.5t-11 -7.5h117v134h67q34 0 59 7.5t42 20.5q17 17 25 37.5t8 45.5
q0 30 -7.5 51t-20.5 33v0v0zM797 442q-9 -5 -18.5 -8.5t-26.5 -3.5h-34v84h40q16 0 26 -3.5t18 -7.5q4 -4 7.5 -12t3.5 -16q0 -12 -4 -20.5t-12 -12.5v0v0zM523 403q-12 0 -24 -8t-20 -20l-95 16l44 196h-95v-151h-117v151h-111v-363h111v134h117v-134h140q-13 8 -24.5 11
t-20.5 11q-8 9 -15.5 17t-12.5 17q-4 8 -8 17t-8 22l95 17q4 -13 15.5 -20.5t28.5 -7.5q21 0 35.5 14.5t14.5 35.5q0 17 -14.5 31t-35.5 14v0v0z" />
    <glyph glyph-name="uniE88F" unicode="&#xe88f;" 
d="M878 393v-5v-1q-17 -18 -35.5 -27.5t-41.5 -13.5q-8 0 -17 -3t-18 -3h-15h-15l-2.5 0.5t-2.5 5.5q-49 44 -101 89t-100 94h-3h-3q-18 -5 -35.5 -9t-35.5 -9q-18 -4 -38.5 -0.5t-38.5 12.5q-13 9 -19 15.5t-10 19.5q-5 5 -1 14.5t12 9.5q31 9 65 21.5t65 25.5q9 5 21 5.5
t21 0.5q4 0 8 -3l4 -3q31 -13 62 -23.5t62 -23.5h3h3q22 4 47 11.5t47 12.5h5h1zM270 399q13 9 26.5 5t26.5 -17q9 -9 9.5 -21.5t-3.5 -25.5q13 4 25 -2.5t16 -15.5q9 -13 6 -25.5t-12 -21.5h9.5h8.5q9 -5 17 -10.5t13 -19.5q4 -13 1 -22t-7 -13q-5 -5 -9.5 -9t-8.5 -9
l-8.5 -8.5l-9.5 -9.5q-4 -4 -22 -8.5t-31 8.5q-22 23 -41.5 48t-41.5 47q-13 18 -25.5 32.5t-21.5 32.5q-4 9 -8 15t-4 14q0 5 1 12.5t5 11.5l15 15l15 15q13 13 32 10t33 -16q-5 0 -5.5 -4t-0.5 -8v0v0zM417 192l30 -29q13 -14 31.5 -11t27.5 17l-6 5q-18 18 -35.5 36
t-35.5 35q-4 5 -5 6.5t-1 5.5q0 5 4 6.5t8 5.5q5 0 8.5 -1t3.5 -5l21.5 -21.5l25.5 -25.5l21.5 -21.5t26.5 -25.5q4 -9 12 -10.5t17 -1.5q9 4 17 9t13 14v5.5v0.5q-31 31 -65 63t-65 67q-5 5 -5.5 6.5t-0.5 5.5q0 9 7 9.5t16 -3.5l3 -1t3 -5l65 -65l65 -65q5 -4 5.5 -5
l0.5 -1q13 0 24.5 11t11.5 25v5v1q-36 35 -74.5 73.5l-73.5 73.5q-5 5 -5.5 6.5t-0.5 5.5t3 8l3 4q4 0 8 -1t4 -5q4 -5 5.5 -6t6.5 -6q26 -26 52.5 -53t53.5 -53l17 -17t12 -13l3 -2t3 2q18 5 26 20.5t4 32.5h35v0v0v-11.5v-11.5q-4 -22 -17.5 -36t-35.5 -23l-3 -1t-3 -5
q-9 -22 -26 -37.5t-39 -15.5q-4 0 -5 -1t-1 -5q-13 -27 -39.5 -36t-48.5 0q-5 0 -8.5 3l-3.5 3q-5 -4 -10 -8.5t-14 -9.5q-22 -8 -42.5 -4.5t-34.5 16.5q-8 9 -14 15l-15 15q13 18 19 25t10 16v0v0v0zM252 706q22 -9 47 -17t48 -12q26 -9 49.5 -17.5t50.5 -12.5h0.5h5.5
q-13 -4 -25.5 -8.5t-21.5 -9.5h-3h-3q-36 9 -70.5 18.5t-65.5 23.5h-5.5h-0.5l-77 -183q0 -9 4 -14.5t8 -9.5q4 -5 5 -6t1 -6q-5 -4 -10 -11.5t-14 -12.5q-13 14 -21 28.5t-8 36.5l88 213q-4 -9 2.5 -2t15.5 2v0v0z" />
    <glyph glyph-name="uniE890" unicode="&#xe890;" 
d="M512 666q-55 0 -103 -21q-47 -21 -82 -56.5t-55 -82.5q-20 -48 -20 -101t21 -100q20 -47 55.5 -82.5t83.5 -56.5q47 -21 100 -21t100 21q48 21 83.5 56.5t55.5 82.5q21 47 21 100t-20 101q-20 47 -55 82.5t-82 56.5q-48 21 -103 21v0zM653 326q5 -4 5 -12t-5 -16l-33 -34
q-5 -4 -12.5 -4t-16.5 4l-79 79l-79 -79q-4 -4 -12 -4t-17 4l-33 34q-5 4 -5 12t5 16l84 79l-79 80q-4 4 -4 11.5t4 16.5l34 34q4 4 12 4t16 -4l74 -85l79 79q4 4 12 4t17 -4l33 -34q5 -4 5 -12t-5 -16l-79 -74l79 -79v0z" />
    <glyph glyph-name="uniE891" unicode="&#xe891;" 
d="M187 528q-4 -4 -1.5 -5t7.5 -1l108 -11q4 0 7.5 3.5t3.5 7.5l-17 103q0 4 -2.5 5l-2.5 1l-103 -103v0zM255 591l-62 62q-5 5 -9 5t-9 -5l-17 -22q-4 -5 -4 -9t4 -8l63 -63zM734 625q-4 4 -4.5 1.5t-0.5 -7.5l-12 -108q0 -4 4 -8t8 -4l108 12q4 0 5 3l1 3zM797 551l63 63
q4 4 4 8t-4 9l-23 22q-4 5 -8.5 5t-8.5 -5l-63 -62zM831 288q5 5 2 5.5t-7 0.5l-103 17q-4 0 -7.5 -3.5t-3.5 -7.5l11 -109q0 -4 3 -4.5l3 -0.5l102 102v0zM763 226l63 -63q4 -4 8.5 -4t8.5 4l23 23q4 4 4 8.5t-4 8.5l-63 63l-40 -40v0zM284 191q4 -4 5 -1t1 7l11 108
q0 5 -3.5 8.5t-7.5 3.5l-109 -12q-4 0 -5 -2.5l-1 -2.5zM221 260l-63 -63q-4 -4 -4 -8.5t4 -8.5l23 -23q4 -4 8.5 -4t8.5 4l63 63l-40 40v0zM335 534v-240h348v240h-348v0zM638 334h-263v154h263v-154z" />
    <glyph glyph-name="uniE892" unicode="&#xe892;" 
d="M447 290q4 -5 5 -9.5t1 -9.5v-62q0 -5 -3 -5.5l-3 -0.5l-231 156q-5 4 -5.5 9t-0.5 9v50q0 5 3 9.5t3 9.5l231 156q4 4 5 1t1 -7v-63q0 -5 -3 -9.5t-3 -9.5l-163 -112q-4 -4 -4 -6t4 -6l163 -100v0zM733 396q5 5 5 6.5t-5 5.5l-156 113q-4 4 -5 9t-1 9v63q0 4 3 5l3 1
l231 -156q5 -5 5.5 -9.5t0.5 -9.5v-49q0 -5 -3 -10t-3 -9l-231 -156q-4 -5 -5 -2t-1 8v62q0 5 3 10t3 9l156 100v0z" />
    <glyph glyph-name="uniE893" unicode="&#xe893;" 
d="M353 491q-9 0 -12 -4.5t6 -13.5l153 -188q5 -9 15 -9t15 9l153 188q4 9 3.5 13.5t-9.5 4.5h-324v0zM571 479v135q0 9 -7.5 16.5t-16.5 7.5h-70q-9 0 -16.5 -7.5t-7.5 -16.5v-141h118v6zM647 344q-4 0 -11.5 -4t-11.5 -8l-77 -94q-4 -5 -11.5 -12.5l-11.5 -11.5l-4 -3
t-8 -3t-11 6l-7 6l-11.5 11.5l-11.5 11.5l-77 95q-4 4 -11.5 7.5t-11.5 3.5h-124q-4 0 -11 -4t-7 -13v-142q0 -4 4.5 -10.5t13.5 -6.5h530q4 0 11 4.5t7 12.5v142q0 4 -4.5 10.5t-13.5 6.5l-130 -5v0zM300 232q-13 0 -21 8t-8 21t8 21.5t21 8.5t21 -8.5t8 -21.5t-8 -21
t-21 -8v0z" />
    <glyph glyph-name="uniE894" unicode="&#xe894;" 
d="M615 405l134 134q8 8 8 21t-8 21l-62 61q-7 8 -20 8t-21 -8l-134 -134l-134 134q-8 8 -21 8t-20 -8l-62 -61q-8 -8 -8 -21t8 -21l134 -134l-134 -134q-8 -7 -8 -20t8 -21l62 -62q7 -8 20 -8t21 8l134 134l134 -134q8 -8 21 -8t20 8l62 62q8 8 8 21t-8 20z" />
    <glyph glyph-name="uniE900" unicode="&#xe900;" 
d="M300 728q52 18 100 10.5t89 -43.5q43 -36 58.5 -82.5t5.5 -101.5q-2 -9 0 -15t8 -13q71 -70 126 -125l125 -125l8 -8t7 -9q30 -37 16 -82.5t-60 -59.5q-27 -8 -51 -0.5t-44 27.5l-128.5 128.5l-128.5 128.5q-5 6 -10 7.5t-12 -0.5q-44 -10 -86 0q-41 11 -73.5 36
t-51.5 63q-20 37 -21 83q-1 19 3 38.5t13 38.5q26 -26 51.5 -51t49.5 -50q8 -8 16.5 -12t19.5 -4t19.5 3.5t15.5 11.5q8 9 17 17.5t18 17.5q10 11 10 30.5t-11 30.5l-52.5 52.5l-53.5 53.5l4.5 3t2.5 1v0zM703 170q0 -18 13.5 -31.5t31.5 -13.5t31 13.5t13 31.5
q0 17 -13 30.5t-31 13.5t-31 -13t-14 -31z" />
    <glyph glyph-name="uniE901" unicode="&#xe901;" 
d="M733 96h-110h-111.5h-110.5h-111v3.5v2.5q0 11 -0.5 23.5t-0.5 23.5q1 30 5.5 58.5t13.5 56.5q13 39 33 72t49 58q3 3 6.5 6t6.5 6v1v0l-2 2l-2 2q-21 17 -38 38.5t-31 46.5q-23 45 -33 93t-8 100q0 5 0.5 12.5t0.5 13.5h111h110.5h110.5h111q0 -1 0.5 -2t0.5 -2
q2 -28 0.5 -57.5t-6.5 -56.5q-11 -55 -34 -100.5t-61 -79.5q-3 -2 -6 -5t-6 -5v-1v-1q1 0 1.5 -0.5l1.5 -1.5q31 -25 53.5 -59.5t36.5 -75.5q9 -26 14 -53t7 -54q0 -15 -0.5 -32.5t-1.5 -32.5v0zM687 139q0 5 0.5 9.5t-0.5 9.5q-1 28 -5.5 55.5t-13.5 52.5q-14 38 -35.5 66
t-53.5 43q-2 1 -2.5 2.5t-0.5 3.5v25v25q0 3 1 4.5t3 2.5l14 8t13 9q22 18 37 42.5t25 53.5q8 23 12 46.5t6 48.5v13v14h-87h-88h-88h-88q0 -6 0.5 -12.5t0.5 -12.5q2 -28 7 -55t15 -52q13 -36 34 -62.5t52 -41.5q2 0 2.5 -1.5t0.5 -3.5v-26v-26q0 -2 -1 -3.5t-2 -1.5
q-4 -3 -8.5 -5t-8.5 -5q-26 -17 -43.5 -42.5t-28.5 -57.5q-9 -26 -13.5 -53.5t-6.5 -56.5v-8v-8h88h88h88h87zM410 559h102h102q-3 -5 -5.5 -9.5t-5.5 -9.5q-8 -12 -18 -22.5t-21 -18.5q-12 -8 -20.5 -19.5t-12.5 -27.5q-1 -5 -2 -10.5t-1 -10.5v-26v-26q1 -21 9.5 -36.5
t22.5 -26.5q33 -22 51 -56t25 -76q0 -1 0.5 -2.5t0.5 -3.5h-125h-124q2 16 5.5 30.5t9.5 29.5q10 24 24.5 43.5t34.5 33.5q13 9 21.5 21.5t11.5 29.5q0 4 0.5 7.5t0.5 7.5q0 14 0.5 28t-0.5 28q-1 18 -8.5 32t-20.5 25q-6 6 -13.5 11.5t-13.5 11.5q-9 8 -16 18.5t-14 23.5v0
z" />
    <glyph glyph-name="uniE902" unicode="&#xe902;" 
d="M768 371q0 -15 -10.5 -25t-24.5 -10h-151v-152q0 -14 -10.5 -24.5t-24.5 -10.5h-70q-14 0 -24.5 10.5t-10.5 24.5v152h-151q-15 0 -25 10t-10 25v69q0 15 10 25t25 10h151v152q0 14 10.5 24.5t24.5 10.5h70q14 0 24.5 -10.5t10.5 -24.5v-152h151q15 0 25 -10t10 -25v-69z
" />
    <glyph glyph-name="uniE903" unicode="&#xe903;" 
d="M396 366v-128q0 -16 13.5 -29.5t29.5 -13.5h128q16 0 29 12t13 31v128q0 16 -11.5 29.5t-30.5 13.5h-128q-16 0 -29.5 -12t-13.5 -31v0zM797 537l-102 106q-10 10 -26.5 16t-29.5 6h-141l22 -43h89v-137q0 -12 8.5 -21t21.5 -9h141v-341h-427v329h-42v-342q0 -12 8.5 -21
t20.5 -9h448q13 0 21.5 9t8.5 21v384q3 13 -4 27.5t-17 24.5v0zM652 494v124q3 0 8 -3t5 -6l102 -102q3 -4 4 -7t5 -6h-124zM737 204v196q0 3 -2.5 6t-5.5 3q-4 0 -7 -1t-6 -4l-90 -89v-30l90 -90q6 -3 7.5 -1.5t5.5 1.5q3 3 5.5 4.5t2.5 4.5v0zM362 511v136l59 -59
q7 -7 13.5 -5t12.5 5l13 13q6 6 6 12.5t-6 12.5l-115 107q-7 6 -12.5 6t-9.5 -6l-115 -111q-3 -7 -3 -13t3 -13l13 -13q6 -6 12 -6t9 6l60 60v-136q0 -7 5.5 -12t11.5 -5h26l8.5 5.5t8.5 15.5v0z" />
    <glyph glyph-name="uniE904" unicode="&#xe904;" 
d="M375 640q61 35 135.5 35t138.5 -35q32 -19 55 -42.5t43 -55.5q27 -48 33 -101q6 -54 -7 -104t-45 -94q-31 -44 -79 -72t-102 -34q-53 -6 -103.5 7.5t-93.5 44.5q-44 32 -73 80q-35 61 -35 135t35 138q16 32 41 55.5t57 42.5v0zM644 388q10 7 10 19.5t-10 19.5l-192 111
q-6 3 -10.5 3t-10.5 -3q-6 -4 -9.5 -9.5t-3.5 -12.5v-226q0 -6 3.5 -12t9.5 -9t12 -3t9 3l192 119v0z" />
    <glyph glyph-name="uniE905" unicode="&#xe905;" 
d="M722 583h-248q-49 0 -84 -35t-35 -85v-288q0 -50 35 -84.5t84 -34.5h248q50 0 84.5 34.5t34.5 84.5v288q0 50 -34.5 85t-84.5 35v0zM779 178q0 -24 -16.5 -40.5t-40.5 -16.5h-248q-23 0 -39.5 16.5t-16.5 40.5v285q0 24 16.5 40.5t39.5 16.5h248q23 0 39.5 -16.5
t16.5 -40.5v-285h1zM245 347v289q0 23 16.5 39.5t40.5 16.5h247q24 0 40.5 -16.5t16.5 -39.5v-19h62v19q0 49 -34.5 84t-84.5 35h-247q-50 0 -84.5 -35t-34.5 -84v-289q0 -49 34.5 -84t84.5 -35h19v63h-19q-24 -2 -40.5 14t-16.5 42v0zM681 382h-163q-14 0 -22.5 8.5
t-8.5 22.5t8.5 23t22.5 9h163q14 0 23 -9t9 -23t-10 -22.5t-22 -8.5zM681 288h-163q-14 0 -22.5 8.5t-8.5 22.5t8.5 22.5t22.5 8.5h163q14 0 23 -8.5t9 -22.5t-10 -22.5t-22 -8.5zM681 194h-163q-14 0 -22.5 8.5t-8.5 22.5t8.5 22.5t22.5 8.5h163q14 0 23 -8.5t9 -22.5
t-10 -22.5t-22 -8.5z" />
    <glyph glyph-name="uniE906" unicode="&#xe906;" 
d="M213 254q68 29 137 42t136 -25v282q-51 35 -114 39.5t-120 -27.5l-39 -311v0zM811 254l-43 316q-54 28 -118.5 24.5t-116.5 -41.5v-286q71 38 140.5 25t137.5 -38v0zM832 608q-38 22 -82 35.5t-89 19.5q-38 0 -76 -6.5t-73 -22.5q-35 16 -73 22.5t-76 6.5q-45 -3 -89 -18
t-82 -37l-64 -452l25 -4t86 25q35 19 75.5 25.5t82.5 0.5q32 -4 62.5 -17t52.5 -39v0q22 26 52.5 39t62.5 17q42 3 81 -4t77 -26q61 -29 86 -25.5l25 3.5l-64 457v0zM794 203q-32 16 -67.5 25t-73.5 9h-15.5h-14.5q-32 -3 -61 -13.5t-54 -29.5q-26 19 -54.5 29.5t-60.5 13.5
h-17.5h-17.5q-35 0 -69.5 -7t-66.5 -23q-16 -10 -34.5 -16t-38.5 -10l64 414q36 19 73.5 29.5t76.5 13.5q35 0 69.5 -6.5t66.5 -19.5l13 -8l13 4q32 13 66.5 19.5t69.5 6.5q39 -4 76.5 -14t73.5 -29l59 -418q-22 6 -39.5 13t-36.5 17v0z" />
    <glyph glyph-name="uniE907" unicode="&#xe907;" 
d="M887 516l-375 -111h-4l-218 69q-16 -20 -25 -45t-9 -54q16 -9 19 -26t-6 -33l-6.5 -6.5l-6.5 -6.5l17 -145q0 -3 -0.5 -4t-3.5 -5h-0.5h-3.5h-64q-4 0 -5 0.5t-4 4.5q0 3 -2 4t-2 4l17 145q-10 7 -13.5 16t-3.5 18q0 13 5.5 22.5t15.5 16.5q0 29 9 57t25 54l-106 30
q-7 3 -8 6.5t-1 10.5q0 3 2 3.5l2 0.5l376 119h4l375 -123q4 0 6.5 -3t2.5 -6t-2.5 -6.5t-6.5 -6.5v0zM725 320q4 -35 -59.5 -60t-153.5 -25t-151.5 25t-61.5 60l4 107l192 -64h8.5h8.5t8.5 0.5t8.5 3.5l192 60l4 -107v0z" />
    <glyph glyph-name="uniE908" unicode="&#xe908;" 
d="M512 747q-71 0 -133 -27t-108.5 -73.5t-72.5 -108.5q-27 -62 -27 -133q0 -70 27 -132q26 -63 72.5 -109t108.5 -73t133 -27t133 27t108.5 73t72.5 108q27 63 27 133q0 71 -27 133q-26 62 -72.5 108.5t-108.5 73.5t-133 27v0v0zM512 93q-65 0 -122 24q-57 25 -99.5 67.5
t-66.5 99.5q-25 57 -25 121q0 65 25 122q24 57 66.5 99.5t99.5 66.5q57 25 122 25t122 -25q57 -24 99.5 -66.5t66.5 -99.5q25 -57 25 -122q0 -64 -25 -121t-67 -99.5t-99 -67.5q-57 -24 -122 -24v0v0zM512 655q-52 0 -97 -20q-46 -19 -79.5 -53t-53.5 -80q-20 -45 -20 -97
q0 -51 20 -97q20 -45 53.5 -79t79.5 -54q45 -19 97 -19t97 19q46 20 79.5 54t53.5 79q20 46 20 97q0 52 -20 97q-20 46 -53.5 80t-79.5 53q-45 20 -97 20v0z" />
    <glyph glyph-name="uniE909" unicode="&#xe909;" 
d="M469 545h87v0v0q5 0 9 1.5t7 4.5q3 4 4.5 8t1.5 8v0.5v0.5v70v0v0q0 5 -1.5 9t-4.5 7t-7 5t-9 2v0v0h-87v0v0q-5 0 -9 -2t-6 -5q-3 -3 -5 -7t-2 -9v0v0v-70v0v0q0 -5 2 -9t5 -7q2 -3 6 -5t9 -2v0zM599 242h-22v210v0v0q0 5 -2 9t-5 7q-2 3 -6 5t-9 2v0v0h-130v0v0
q-5 0 -9 -2t-6 -5q-3 -3 -5 -7t-2 -9v0v0v-47v0v0q0 -5 2 -9t5 -7q2 -3 6 -5t9 -2v0v0h22v-140h-22v0v0q-5 0 -9 -2t-6 -5q-3 -3 -5 -7t-2 -9v0v0v-46v-0.5v-0.5q0 -4 2 -8.5t5 -7.5q2 -3 6 -4.5t9 -1.5v0v0h174v0v0q5 0 9 1.5t6 4.5q3 3 5 7.5t2 8.5v0.5v0.5v46v0.5v0.5
q0 4 -1.5 8t-3.5 7q-3 3 -7 5t-9 2h-0.5h-0.5v0z" />
    <glyph glyph-name="uniE90A" unicode="&#xe90a;" 
d="M394 724h-75q-49 0 -84 -35t-35 -84v-289q0 -42 25 -73t63 -43v69q-12 7 -18.5 19t-6.5 28v289q0 23 16.5 39.5t39.5 16.5h132l0.5 0.5l2.5 2.5v0q0 24 -18 42t-42 18v0zM705 614h-16h-25q-9 26 -31.5 42.5t-53.5 16.5q-30 0 -51 -16.5t-30 -42.5h-25.5h-15.5
q-49 0 -84 -35t-35 -84v-289q0 -49 35 -84t84 -35h248q49 0 84 35t35 84v286q2 49 -34 85.5t-85 36.5v0zM583 627q16 0 28 -12.5t12 -28.5q0 -17 -12 -29t-28 -12q-17 0 -29 12t-12 29q0 16 11 28.5t30 12.5zM764 203q0 -23 -16 -39.5t-40 -16.5h-251q-23 0 -39.5 16.5
t-16.5 39.5v289q0 14 6.5 27t18.5 20v0q0 -33 22.5 -56t55.5 -23h160q33 0 56 23t23 56v0q9 -7 15.5 -20t6.5 -27v-289h-1z" />
    <glyph glyph-name="uniE90B" unicode="&#xe90b;" 
d="M735 625q-41 46 -98.5 73t-124.5 27q-62 0 -116 -23q-55 -24 -95.5 -64.5t-63.5 -94.5q-24 -54 -24 -116h75q0 46 18 87q17 41 47.5 71t71.5 48t87 18q51 0 95 -21.5t75 -57.5l-70 -71h199v199l-76 -75v0zM512 203q-51 0 -95 21.5t-75 57.5l70 70h-199v-199l76 76
q41 -47 98.5 -74t124.5 -27q62 0 116 23q55 24 95.5 64.5t63.5 94.5q24 55 24 117h-75q0 -47 -18 -88q-17 -40 -47.5 -70.5t-71.5 -48.5q-41 -17 -87 -17v0z" />
    <glyph glyph-name="uniE90C" unicode="&#xe90c;" 
d="M467 160h90v269h-90v-269v0zM512 832q-93 0 -174 -35q-82 -35 -143 -96t-96 -143q-35 -81 -35 -174t35 -174q35 -82 96 -143t143 -96q81 -35 174 -35t174 35q82 35 143 96t96 143q35 81 35 174t-35 174q-35 82 -96 143t-143 96q-81 35 -174 35zM512 26q-74 0 -139 28
q-66 28 -114.5 76.5t-76.5 114.5q-28 65 -28 139t28 139q28 66 76.5 114.5t114.5 76.5q65 28 139 28t139 -28q66 -28 114.5 -76.5t76.5 -114.5q28 -65 28 -139t-28 -139q-28 -66 -76.5 -114.5t-114.5 -76.5q-65 -28 -139 -28zM467 518h90v90h-90v-90z" />
    <glyph glyph-name="uniE90D" unicode="&#xe90d;" 
d="M600 787q0 -37 -26 -62.5t-62 -25.5t-62 25.5t-26 62.5q0 36 26 62t62 26t62 -26t26 -62zM512 112q-36 0 -62 -26t-26 -62t26 -62t62 -26t62 26t26 62t-26 62t-62 26zM893 493q-36 0 -62 -25.5t-26 -62.5q0 -36 26 -62t62 -26q37 0 62.5 26t25.5 62q0 37 -25.5 62.5
t-62.5 25.5v0zM219 405q0 37 -26 62.5t-62 25.5q-37 0 -62.5 -25.5t-25.5 -62.5q0 -36 25.5 -62t62.5 -26q36 0 62 26t26 62zM242 224q-36 0 -62 -26t-26 -62q0 -37 26 -62.5t62 -25.5q37 0 62.5 25.5t25.5 62.5q0 36 -25.5 62t-62.5 26v0zM782 224q-37 0 -62.5 -26
t-25.5 -62q0 -37 25.5 -62.5t62.5 -25.5q36 0 62 25.5t26 62.5q0 36 -26 62t-62 26zM242 763q-36 0 -62 -26t-26 -62t26 -62t62 -26q37 0 62.5 26t25.5 62t-25.5 62t-62.5 26v0z" />
    <glyph glyph-name="uniE90E" unicode="&#xe90e;" 
d="M615 788h-318q-56 0 -96 -40t-40 -96v-370q0 -33 14.5 -61t38.5 -47v70q-3 9 -5 18.5t-2 19.5v370q0 37 26.5 63.5t63.5 26.5h318q11 0 21.5 -3t20.5 -8h68q-18 26 -47 41.5t-63 15.5v0zM674 246h-209q-11 0 -17 -6t-6 -17t6 -17t17 -6h209q9 0 16.5 6t7.5 17t-6.5 17
t-17.5 6zM674 367h-209q-11 0 -17 -6t-6 -17t6 -17t17 -6h209q9 0 16.5 6t7.5 17t-6.5 17t-17.5 6zM727 665h-318q-56 0 -96 -40t-40 -96v-370q0 -57 40 -96.5t96 -39.5v0h318q56 0 96 39.5t40 96.5v370q0 56 -40 96t-96 40v0zM816 163q0 -37 -26 -63.5t-63 -26.5h-318
q-37 0 -63.5 26.5t-26.5 63.5v366q0 37 26.5 63.5t63.5 26.5h318q37 0 63 -26.5t26 -63.5v-349v0v-17v0zM674 488h-209q-11 0 -17 -6t-6 -17t6 -17t17 -6h209q9 0 16.5 6t7.5 17t-6.5 17t-17.5 6v0z" />
    <glyph glyph-name="uniE90F" unicode="&#xe90f;" 
d="M615 788h-318q-56 0 -96 -40t-40 -96v-370q0 -33 14.5 -61t38.5 -47v70q-3 9 -5 18.5t-2 19.5v370q0 37 26.5 63.5t63.5 26.5h318q11 0 21.5 -3t20.5 -8h68q-18 26 -47 41.5t-63 15.5v0zM727 665h-318q-56 0 -96 -40t-40 -96v-370q0 -57 40 -96.5t96 -39.5v0h318
q56 0 96 39.5t40 96.5v370q0 56 -40 96t-96 40v0zM816 163q0 -37 -26 -63.5t-63 -26.5h-318q-37 0 -63.5 26.5t-26.5 63.5v366q0 37 26.5 63.5t63.5 26.5h318q37 0 63 -26.5t26 -63.5v-349v0v-17v0zM710 448l-28 27l-110 -109l-109 109l-28 -27l110 -110l-110 -110l28 -27
l109 109l110 -109l27 27l-109 110l110 110v0z" />
    <glyph glyph-name="uniE910" unicode="&#xe910;" 
d="M410 36q-56 0 -96.5 40t-40.5 97v373q0 56 40.5 96.5t96.5 40.5h65l4 11q12 31 35 48.5t54 17.5q33 0 58 -18t36 -48l4 -11h65q27 0 53.5 -11.5t45.5 -32.5q20 -20 29.5 -45t7.5 -51v-370q0 -57 -40 -97t-96 -40h-321v0zM361 617q-19 -11 -30 -31.5t-11 -43.5v-373
q0 -38 26.5 -64.5t64.5 -26.5h324q33 0 57.5 21t31.5 52h1v18v373q0 21 -9.5 41.5t-25.5 32.5l-27 21v-17q0 -35 -24.5 -59.5t-60.5 -24.5h-207q-35 0 -59.5 24.5t-24.5 59.5v13l-26 -16v0zM572 712q-20 0 -34 -14t-14 -34t14.5 -34.5t33.5 -14.5q20 0 34.5 14.5t14.5 34.5
q0 19 -14.5 33.5t-34.5 14.5zM422 743l12.5 12.5l12.5 12.5q1 2 2.5 3.5t2.5 3.5h-158q-57 0 -97.5 -40.5t-40.5 -97.5v-374q0 -34 15 -62.5t41 -47.5v69q-5 9 -7 19.5t-2 21.5v374q0 38 26.5 64.5t64.5 26.5h116q3 4 6 7.5t6 7.5v0z" />
    <glyph glyph-name="uniE911" unicode="&#xe911;" 
d="M410 36q-56 0 -96.5 40t-40.5 97v373q0 56 40.5 96.5t96.5 40.5h65l4 11q12 31 35 48.5t54 17.5q33 0 58 -18t36 -48l4 -11h65q27 0 53.5 -11.5t45.5 -32.5q20 -20 29.5 -45t7.5 -51v-370q0 -57 -40 -97t-96 -40h-321v0zM361 617q-19 -11 -30 -31.5t-11 -43.5v-373
q0 -38 26.5 -64.5t64.5 -26.5h324q33 0 57.5 21t31.5 52h1v18v373q0 21 -9.5 41.5t-25.5 32.5l-27 21v-17q0 -35 -24.5 -59.5t-60.5 -24.5h-207q-35 0 -59.5 24.5t-24.5 59.5v13l-26 -16v0zM572 712q-20 0 -34 -14t-14 -34t14.5 -34.5t33.5 -14.5q20 0 34.5 14.5t14.5 34.5
q0 19 -14.5 33.5t-34.5 14.5zM422 743l12.5 12.5l12.5 12.5q1 2 2.5 3.5t2.5 3.5h-158q-57 0 -97.5 -40.5t-40.5 -97.5v-374q0 -34 15 -62.5t41 -47.5v69q-5 9 -7 19.5t-2 21.5v374q0 38 26.5 64.5t64.5 26.5h116q3 4 6 7.5t6 7.5v0zM719 443l-28 27l-111 -110l-111 110
l-28 -27l111 -111l-111 -111l28 -28l111 111l111 -111l27 28l-110 111l111 111v0z" />
    <glyph glyph-name="uniE912" unicode="&#xe912;" 
d="M853 678l-68 69l-273 -273l-273 273l-68 -69l272 -273l-272 -272l68 -69l273 273l273 -273l68 69l-272 272z" />
    <glyph glyph-name="uniE913" unicode="&#xe913;" 
d="M473 569v-319q0 -8 -5.5 -13.5t-13.5 -5.5q-4 0 -7.5 1.5t-5.5 3.5l-98 98h-77q-8 0 -13.5 5.5t-5.5 13.5v112q0 8 5.5 13.5t13.5 5.5h77l98 98q5 6 13 5.5t13 -5.5q3 -3 4.5 -6t1.5 -7v0v0zM586 451q6 -9 9 -20t3 -22t-3 -21.5t-9 -20.5q-6 -9 -14.5 -16.5t-19.5 -11.5
q-1 -1 -3 -1h-4q-4 0 -7.5 1.5t-5.5 3.5q-3 3 -4.5 6.5t-1.5 7.5q0 3 1 5.5t2 4.5q2 2 4.5 4t4.5 4q2 1 5 3t5 3q3 3 5 5.5t4 5.5q3 8 3 17t-3 17q-2 3 -4 5.5t-5 4.5q-2 2 -4.5 3.5t-5.5 3.5q-2 2 -4.5 3.5t-4.5 3.5q-1 3 -2 5.5t-1 5.5q0 4 1.5 7.5t4.5 5.5q2 3 5.5 4.5
t7.5 1.5q2 0 4 -0.5t3 -1.5q11 -3 19.5 -10t14.5 -17v0v0zM663 493q25 -38 25 -84t-25 -84q-12 -18 -29 -32.5t-37 -23.5q-2 -1 -4 -1h-4q-4 0 -7.5 1.5t-5.5 3.5q-3 3 -4.5 6.5t-1.5 7.5q0 6 3 10.5t9 6.5q5 3 11 6.5t11 6.5q38 28 45.5 74.5t-20.5 84.5q-5 7 -11.5 13
t-13.5 12q-5 3 -10.5 6.5t-11.5 6.5q-6 2 -9 6.5t-3 10.5q0 8 5.5 13.5t13.5 5.5q2 0 4 -0.5t4 -0.5q20 -9 37 -23t29 -33v0zM741 534q26 -39 34 -83q8 -45 -1 -88t-34 -80q-24 -38 -64 -64q-8 -6 -17 -10.5t-18 -8.5q-2 -1 -4 -1.5t-4 -0.5q-8 0 -13.5 5.5t-5.5 13.5
q0 6 3.5 10.5t8.5 7.5q1 1 3 1.5t3 1.5q2 0 3.5 1t3.5 2q6 3 12.5 7t11.5 8q18 13 32.5 30t24.5 37q21 41 21 86t-21 86q-10 20 -24.5 37t-32.5 30q-5 4 -11.5 8t-12.5 7q-2 1 -3.5 2t-3.5 1q-1 1 -3 1.5t-3 1.5q-5 3 -8.5 7.5t-3.5 10.5q0 8 5.5 13t13.5 6q2 0 4 -0.5
t4 -1.5q31 -13 56.5 -34.5t43.5 -49.5v0v0z" />
    <glyph glyph-name="uniE914" unicode="&#xe914;" 
d="M797 537l-102 106q-10 10 -26.5 15.5t-29.5 5.5h-141l21 -42h90v-137q0 -13 8.5 -21.5t21.5 -8.5h141v-341h-427v329h-43v-342q0 -12 9 -21t21 -9h448q13 0 21.5 9t8.5 21v384q3 13 -4.5 27.5t-16.5 24.5v0zM652 494v124q3 0 8 -3t5 -6l102 -102q3 -4 4 -7t4 -6h-123v0z
M362 511v136l59 -59q7 -7 13.5 -5t12.5 5l13 13q6 6 6 12.5t-6 12.5l-115 107q-7 6 -13 6t-9 -6l-115 -111q-3 -7 -3 -13t3 -13l13 -13q6 -6 12 -6t9 6l60 60v-136q0 -7 5.5 -12t11.5 -5h26l8.5 5.5t8.5 15.5v0zM533 380v-188q0 -3 -2.5 -6.5l-2.5 -3.5h-6q-4 0 -5 0.5
t-5 4.5l-58 58h-47q-3 0 -6.5 3t-3.5 7v63q0 4 3 7t7 3h47l58 58q4 4 9 6t7 0q3 -3 4 -5.5t1 -6.5v0zM616 208q16 16 24 35.5t8 42.5q0 24 -8 43.5t-24 35.5q-7 8 -15 8t-16 -8t-8 -16t8 -16q8 -7 12 -19t4 -28q0 -15 -4 -25t-12 -22q-8 -7 -8 -15t8 -16q4 -4 8 -4.5t8 -0.5
t7.5 0.5t7.5 4.5v0zM689 156q24 27 35.5 58.5t11.5 66.5q0 36 -11.5 67t-35.5 59q-7 11 -15 12.5t-16 -2.5q-8 -8 -8.5 -15.5t3.5 -15.5q16 -20 26 -46t10 -53q0 -28 -8 -54t-28 -46q-8 -7 -5.5 -17t10.5 -14q4 -4 8 -4.5t8 -0.5t7.5 0.5t7.5 4.5v0z" />
    <glyph glyph-name="uniE915" unicode="&#xe915;" horiz-adv-x="3151" 
d="M2076 830q-40 38 -99.5 54.5t-139.5 16.5h-341v-180h-446l-35 -151q48 23 103 32q55 10 110 4.5t106 -25.5t91 -57q43 -40 66 -90q23 -51 27 -106t-9 -110q-12 -56 -41 -104q-22 -38 -53 -67t-69 -49q-17 -9 -34.5 -13.5t-33.5 -11.5h346v335h181q47 0 95 8t90.5 26.5
t77.5 48.5q35 31 58 77q20 41 27 91q8 49 2.5 98t-25.5 94q-19 45 -54 78v1zM1835 540q-17 -14 -47 -20t-72 -6h-92v207h104q34 0 68.5 -9t55.5 -39q8 -12 12.5 -26.5t4.5 -30.5q0 -22 -9 -42t-25 -34v0zM1105 434q-39 0 -70 -20.5t-47 -52.5l-258 30l117 510h-228v-387
h-335v387h-284v-928h284v335h335v-335h347q-45 10 -82 32q-38 22 -68 52.5t-51 69.5q-22 38 -35 81l258 37q17 -32 48 -52t69 -20q54 0 92.5 38t38.5 92t-38.5 92.5t-92.5 38.5v0zM2349 -27h-89l41 192q3 14 5 32.5t-8 29.5q-6 5 -12.5 7.5t-13.5 2.5q-6 0 -11.5 -1.5
t-10.5 -4.5q-28 -17 -40.5 -54t-19.5 -67l-29 -137h-89l97 459h89q-9 -44 -19.5 -87t-23.5 -86h3q24 30 62 45t75 -5q37 -21 39 -62t-6 -76zM2503 303h88l-40 -192q-3 -14 -5 -32.5t9 -29.5q5 -5 11 -7.5t14 -2.5q6 0 11.5 2t10.5 5q28 17 40.5 54t19.5 67l29 136h89
l-70 -330h-68l6 61h-1q-22 -34 -59 -55.5t-79 -6.5q-46 16 -48.5 65t5.5 87zM3030 308q45 0 66 -28q20 -28 24.5 -66.5t-4.5 -80.5q-8 -41 -20 -68q-14 -32 -38.5 -56t-56.5 -36q-8 -2 -16 -3.5t-16 -1.5q-26 0 -47.5 13t-33.5 34l-2 1l-17 -43h-68l97 459h89l-18 -85
q-6 -26 -13 -49t-15 -44l4 5q14 21 36 34.5t48 14.5h1zM2994 236q-29 0 -50 -32t-28 -70t2 -68q9 -31 40 -28q25 3 45 35q19 31 27 67.5t1 66.5t-37 30v-1z" />
    <glyph glyph-name="uniE916" unicode="&#xe916;" 
d="M997 60l-118 -118q-14 -14 -27.5 -20.5t-26.5 -6.5q-14 0 -31 6.5t-24 20.5l-253 254l-254 -254q-14 -14 -27.5 -20.5t-27.5 -6.5q-13 0 -30 6.5t-24 20.5l-127 118q-13 13 -20 26.5t-7 27.5t7 31t20 23l254 254l-254 263q-13 14 -20 27.5t-7 26.5q0 14 7 31t20 24
l118 117q7 14 24 21t30 7q14 0 31 -7t24 -21l253 -253l254 253q14 14 27.5 21t27.5 7q13 0 30 -7t24 -21l118 -117q13 -14 20 -27.5t7 -27.5q0 -13 -7 -30t-20 -24l-254 -254l254 -254q13 -13 20 -26.5t7 -27.5q7 -20 1 -35t-19 -28v0z" />
    <glyph glyph-name="uniE917" unicode="&#xe917;" 
d="M17 533q19 86 65 160q46 73 111.5 126.5t147.5 84.5q82 30 173 30q51 0 99 -10q49 -10 93.5 -28t84.5 -45q40 -26 74 -59l86 86q6 6 13.5 9.5t16.5 3.5q17 0 30 -12.5t13 -30.5v-299q0 -17 -13 -29.5t-30 -12.5h-299q-18 0 -30.5 12.5t-12.5 29.5q1 9 4 17t9 13l92 92
q-46 44 -106.5 69.5t-129.5 25.5q-46 0 -89 -12t-80 -33.5t-68 -51.5t-54 -67q-9 -18 -18 -37t-16 -39q-3 -9 -8.5 -13.5t-12.5 -4.5h-125q-8 0 -14 6t-7 15q0 1 0.5 2t0.5 2v0zM0 294q0 17 13 30t30 13h299q18 0 30.5 -13t12.5 -30q-1 -9 -4 -16.5t-9 -13.5l-92 -92
q46 -42 105.5 -66.5t127.5 -24.5q45 0 88 12q43 11 80 32.5t68 50.5q31 30 54 67q10 17 18.5 36t15.5 39q3 9 8.5 13.5t12.5 5.5h132h0.5h0.5q8 0 14 -5.5t8 -13.5v0q-20 -86 -66 -159t-111.5 -126.5t-147.5 -83.5q-81 -29 -172 -29h-0.5h-0.5q-51 0 -100 10q-48 10 -93 28
t-85 44t-75 59l-86 -86q-6 -6 -13.5 -9t-16.5 -4q-17 0 -30 12.5t-13 30.5z" />
    <glyph glyph-name="uniE918" unicode="&#xe918;" 
d="M512 -85q-106 0 -198 40q-93 40 -162.5 109.5t-109.5 161.5q-40 93 -40 199t40 199t109.5 162t162.5 109q92 40 198 40t199 -40t162 -109t109 -162q41 -93 41 -199t-41 -199q-40 -93 -109 -162t-162 -109t-199 -40zM87 425q0 -88 33 -165q34 -78 91.5 -135.5t135.5 -91.5
q77 -33 165 -33t166 33q77 34 135 91.5t91 135.5q33 77 33 165t-33 166q-33 77 -91 134.5t-135 91.5q-78 33 -166 33t-165 -33q-78 -34 -135.5 -91.5t-91.5 -135.5q-33 -77 -33 -165v0zM642 394q-25 -15 -40 -26.5t-15 -27.5v-21q0 -9 -6.5 -15.5t-15.5 -6.5h-106
q-9 0 -15 6.5t-6 15.5v45q0 61 35 87t70 42q30 14 47.5 26t17.5 35q0 29 -30 48t-63 19q-17 0 -34 -5t-29 -13q-11 -7 -22.5 -19.5t-30.5 -35.5q-3 -4 -7 -6t-9 -2q-4 0 -7.5 1t-5.5 3l-72 54q-6 5 -7.5 13.5t2.5 15.5q41 64 99 96t133 32q41 0 83 -16q41 -15 74 -42t54 -64
t21 -80q0 -71 -39 -105t-76 -54v0zM587 117q0 -9 -6.5 -15.5t-15.5 -6.5h-106q-9 0 -15 6.5t-6 15.5v106q0 9 6 15t15 6h106q9 0 15.5 -6t6.5 -15v-106v0z" />
    <glyph glyph-name="uniE919" unicode="&#xe919;" 
d="M511 -85q-106 0 -199 40t-162.5 109.5t-109.5 163.5q-40 93 -40 199t40 199t109.5 162.5t163.5 109.5q93 41 199 41t199 -41q94 -40 163.5 -109.5t109.5 -162.5t40 -199t-41 -200q-40 -93 -109.5 -162.5t-163.5 -109.5q-93 -40 -199 -40v0v0v0zM511 787q-75 0 -141 -28
q-66 -29 -115.5 -78t-77.5 -115q-29 -66 -29 -141t29 -141q28 -67 77.5 -116t115.5 -77q66 -29 141 -29t141 29q66 28 115.5 77t77.5 116q29 66 29 141v0.5v1.5q0 75 -29 141q-28 66 -77.5 115.5t-115.5 77.5q-66 29 -141 29v-3zM499 201q-5 -6 -13 -9.5t-17 -3.5
q-8 0 -16 3.5t-14 9.5l-194 194q-5 5 -8.5 13t-3.5 17t3.5 16.5t8.5 13.5l68 68q6 5 13.5 8.5t16.5 3.5t17 -3.5t13 -8.5l97 -97l184 183q5 6 13 9t17 3q8 0 16 -3t14 -9l68 -68q5 -6 8.5 -13.5t3.5 -16.5t-3.5 -16.5t-8.5 -13.5z" />
    <glyph glyph-name="uniE91A" unicode="&#xe91a;" 
d="M994 385v-2.5v-2.5q0 -33 -22 -55.5t-54 -23.5h-463l195 -194q12 -11 18.5 -26.5t6.5 -32.5t-6.5 -32.5t-18.5 -26.5l-49 -50q-12 -11 -27 -17.5t-32 -6.5h-0.5h-0.5q-17 0 -32.5 6.5t-26.5 17.5l-430 429q-12 11 -18.5 26t-6.5 33v0v0q0 17 6.5 32.5t18.5 26.5l430 427
q11 12 26.5 19t33.5 7q17 -1 32 -7.5t27 -18.5l49 -48q12 -12 18.5 -27.5t6.5 -32.5q0 -18 -6.5 -33t-18.5 -27l-192 -192h462q32 -1 54.5 -24t22.5 -55v-3v-3z" />
    <glyph glyph-name="uniE91B" unicode="&#xe91b;" 
d="M472 542q0 -32 -23 -55.5t-56 -23.5h-314q-33 0 -56 23.5t-23 55.5v241q0 33 23 56t56 23h315q33 0 56 -23t23 -56zM472 70q0 -32 -23 -55.5t-56 -23.5h-314q-33 0 -56 23.5t-23 55.5v236q0 33 23 56t56 23h315q33 0 56 -23t23 -56zM1023 542q0 -32 -23 -55.5t-56 -23.5
h-314q-33 0 -56 23.5t-23 55.5v241q0 33 23 56t56 23h315q33 0 56 -23t23 -56zM1023 70q0 -32 -23 -55.5t-56 -23.5h-314q-33 0 -56 23.5t-23 55.5v236q0 33 23 56t56 23h315q33 0 56 -23t23 -56z" />
    <glyph glyph-name="uniE91C" unicode="&#xe91c;" 
d="M293 681v-0.5v-1.5q0 -23 -16 -39t-39 -17h-183q-23 1 -39 17t-16 39v1.5v0.5v118v1.5v0.5q0 23 16 39.5t39 17.5h183q23 -1 39 -17.5t16 -39.5v-0.5v-1.5v-118zM293 368v-1.5v-0.5q0 -23 -16 -39.5t-39 -17.5h-183q-23 1 -39 17.5t-16 39.5v0.5v1.5v118v0.5v0.5
q0 24 16 40t39 17h183q23 -1 39 -17t16 -40v-0.5v-0.5v-118zM293 54v-0.5v-1.5q0 -23 -16 -39.5t-39 -16.5h-183q-23 0 -39 16.5t-16 39.5v1.5v0.5v118v0.5v1.5q0 23 16 39.5t39 17.5h183q23 -1 39 -17.5t16 -39.5v-1.5v-0.5v-118zM1024 681v-0.5v-1.5q0 -23 -16 -39
t-39 -17h-548q-23 1 -39 17t-16 39v1.5v0.5v118v1.5v0.5q0 23 16 39.5t38 17.5h549q23 -1 39 -17.5t16 -39.5v-0.5v-1.5v-118zM1024 368v-1.5v-0.5q0 -23 -16 -39.5t-39 -17.5h-548q-23 1 -39 17.5t-16 39.5v0.5v1.5v118v0.5v0.5q0 24 16 40t38 17h549q23 -1 39 -17t16 -40
v-0.5v-0.5v-118zM1024 54v-0.5v-1.5q0 -23 -16 -39.5t-39 -16.5h-548q-23 0 -39 16.5t-16 39.5v1.5v0.5v118v0.5v1.5q0 23 16 39.5t38 17.5h549q23 -1 39 -17.5t16 -39.5v-1.5v-0.5v-118z" />
    <glyph glyph-name="uniE91D" unicode="&#xe91d;" 
d="M218 813v99q0 11 -8 19t-20 8h-8q-12 0 -20 -8t-8 -19v-99q-47 -10 -78.5 -48.5t-31.5 -88.5t31 -88.5t78 -48.5l1 -593q0 -11 8 -19t20 -8h8q11 0 19 8t8 19v588q52 7 87 46.5t35 93.5q0 53 -34.5 92.5t-86.5 46.5v0zM550 396v515q0 12 -8 20t-19 8h-5q-11 0 -19 -8
t-8 -20v-513q-54 -9 -89.5 -50.5t-35.5 -96.5q0 -56 35.5 -97.5t88.5 -50.5l1 -160q0 -11 8 -19t19 -8h5q11 0 19 8t8 19v160q50 12 83.5 52.5t33.5 93.5t-33 93.5t-83 52.5zM980 574q0 52 -33.5 90.5t-83.5 45.5l-1 201q0 12 -8 20t-19 8h-6q-12 0 -20 -8t-8 -20v-205
q-43 -12 -71.5 -48.5t-28.5 -83.5t28.5 -83t70.5 -49l1 -500q0 -11 8 -19t20 -8h4q12 0 20 8t8 19v496q50 7 84.5 45.5t34.5 90.5v0z" />
    <glyph glyph-name="uniE91E" unicode="&#xe91e;" 
d="M472 234q0 41 21 77q22 36 59.5 63t87.5 42q51 16 108 16t107 -16q51 -15 88.5 -42t58.5 -63q22 -36 22 -77q-3 -51 -31.5 -91.5t-71.5 -61.5q7 -28 21 -51.5t34 -41.5l6 -8t2 -10v0q-1 -5 -4.5 -8.5t-9.5 -3.5v0h-1q-10 1 -19 3l-18 4q-40 10 -76 29t-66 45
q-5 0 -10.5 -0.5t-11.5 -0.5t-12 0.5t-12 0.5q-56 0 -105 15q-50 15 -87 41.5t-59 62.5q-21 36 -21 76v0zM335 331q21 56 63 102q41 45 97.5 77.5t124.5 50.5q69 18 144 18h28q0 3 0.5 7.5t0.5 8.5t-0.5 8.5t-0.5 8.5q0 59 -31 111q-31 51 -85 89.5t-127 60.5
q-72 22 -155 22q-82 0 -154 -22q-72 -23 -125.5 -61.5t-83.5 -90.5q-31 -52 -31 -111q4 -74 44.5 -133.5t103.5 -90.5q-10 -39 -30 -71.5t-48 -58.5q-5 -6 -9.5 -12t-2.5 -13v0q1 -8 6.5 -13t13.5 -5v0h1q14 2 27 4.5t26 6.5q57 14 108 41.5t94 65.5q2 -1 0.5 -0.5t0.5 0.5
v0z" />
    <glyph glyph-name="uniE91F" unicode="&#xe91f;" 
d="M955 684q33 -55 51 -120.5t18 -136.5t-18.5 -136.5t-51.5 -122.5t-79.5 -103.5t-103.5 -79.5t-122.5 -51.5t-136.5 -18.5t-136.5 18.5t-122.5 51.5t-103.5 79.5t-79.5 103.5t-51.5 122.5t-18.5 136.5t18.5 136.5t51.5 122.5t79.5 103t103.5 79q57 34 122.5 52t136.5 18
t136.5 -18t122.5 -52q57 -33 103.5 -79t79.5 -103zM683 105v106v0.5v0.5q0 8 -6 14t-14 6h-1v0h-66v348v0v1q0 8 -6 14t-14 6h-0.5h-0.5h-212v0h-1q-8 0 -14 -6t-6 -14v-1v0v-106v-1v0q0 -9 6 -15t14 -6h1v0h64v-213h-64v0h-1q-8 0 -14 -6t-6 -14v-1v0v-107v0v-1q0 -8 6 -14
t14 -6h1v0h299v0h1q8 0 14 6t6 14v1v0v-6zM596 704v107v0v1q0 8 -6 14t-14 6h-0.5h-0.5h-127v0h-1q-8 0 -14 -6t-6 -14v-1v0v-107v0v-1q0 -8 6 -14t14 -6h1v0h128v0v0q8 0 14 6t6 14v1v0v0z" />
    <glyph glyph-name="uniE920" unicode="&#xe920;" 
d="M512 -85q-106 0 -199 40q-94 40 -163.5 109.5t-109.5 162.5q-40 94 -40 200t40 199t109.5 162.5t163.5 109.5q93 41 199 41t199 -41q94 -40 163.5 -109.5t109.5 -162.5t40 -199t-40 -200q-40 -93 -109.5 -162.5t-163.5 -109.5q-93 -40 -199 -40zM512 849q-87 0 -164 -33
q-77 -34 -134.5 -91t-90.5 -134t-33 -164q0 -88 33 -165t90.5 -134t134.5 -90t164 -33t164 33t134.5 90t90.5 134t33 165q0 87 -33 164t-90.5 134t-134.5 91q-77 33 -164 33zM724 427q0 -44 -17 -83q-17 -38 -45.5 -67t-67.5 -45q-38 -17 -82 -17t-82 17q-39 16 -67.5 45
t-45.5 67q-17 39 -17 83q0 43 17 82t45.5 67.5t67.5 45.5q38 16 82 16t82 -16q39 -17 67.5 -45.5t45.5 -67.5t17 -82z" />
    <glyph glyph-name="uniE921" unicode="&#xe921;" 
d="M903 -107h-782q-58 0 -99 41t-41 99v787q0 58 41 99t99 41h782q58 0 99 -41t41 -99v-787q0 -58 -41 -99t-99 -41zM121 866q-20 0 -33.5 -13.5t-13.5 -32.5v-787q0 -19 13.5 -32.5t33.5 -13.5h782q20 0 33.5 13.5t13.5 32.5v787q0 19 -13.5 32.5t-33.5 13.5h-782zM865 565
v0v0q0 -9 -3 -16.5t-9 -12.5l-376 -376q-5 -5 -13 -8.5t-16 -3.5q-9 0 -16.5 3.5t-13.5 8.5l-60 60l-160 158q-5 6 -8.5 13.5t-3.5 16.5q0 8 3.5 16t8.5 13l60 60q5 5 13 8.5t16 3.5q9 0 16.5 -3.5t13.5 -8.5l128 -129l286 287q6 5 13.5 8.5t16.5 3.5q8 0 16 -3.5t14 -8.5
l59 -60q7 -5 11 -13t4 -17v0z" />
    <glyph glyph-name="uniE922" unicode="&#xe922;" 
d="M512 -85q-106 0 -199 40q-94 40 -163.5 109.5t-109.5 162.5q-40 94 -40 200t40 199t109.5 162.5t163.5 109.5q93 41 199 41t199 -41q94 -40 163.5 -109.5t109.5 -162.5t40 -199t-40 -200q-40 -93 -109.5 -162.5t-163.5 -109.5q-93 -40 -199 -40zM512 849q-87 0 -164 -33
q-77 -34 -134.5 -91t-90.5 -134t-33 -164q0 -88 33 -165t90.5 -134t134.5 -90t164 -33t164 33t134.5 90t90.5 134t33 165q0 87 -33 164t-90.5 134t-134.5 91q-77 33 -164 33z" />
    <glyph glyph-name="uniE923" unicode="&#xe923;" 
d="M888 -85h-752q-55 0 -94.5 39t-39.5 95v755q0 56 39.5 95.5t94.5 39.5h752q55 0 94.5 -39.5t39.5 -95.5v-755q0 -56 -39.5 -95t-94.5 -39v0zM136 849q-18 0 -31 -13t-13 -32v-755q0 -18 13 -31t31 -13h752q18 0 31 13t13 31v755q0 19 -13 32t-31 13h-752z" />
    <glyph glyph-name="uniE924" unicode="&#xe924;" 
d="M996 679l-44 44q-13 12 -30.5 19.5t-36.5 7.5q-20 0 -37.5 -7.5t-30.5 -19.5l-303 -303l-306 304q-13 13 -30.5 20t-36.5 7q-20 0 -37.5 -7t-30.5 -20l-45 -45q-13 -12 -20.5 -29.5t-7.5 -37.5t7.5 -37.5t20.5 -29.5l415 -415q13 -13 30 -20.5t37 -7.5t37.5 7.5
t30.5 20.5l418 415q13 12 20.5 29.5t7.5 37.5t-7.5 37.5t-20.5 29.5v0z" />
    <glyph glyph-name="uniE925" unicode="&#xe925;" 
d="M781 382l-448 -449q-9 -8 -20.5 -13t-24.5 -5q-26 0 -44.5 18.5t-19.5 44.5v897q1 26 19.5 44.5t44.5 19.5q13 0 24.5 -5.5t20.5 -13.5l448 -448q9 -9 14 -20.5t5 -24.5t-5 -25t-14 -20v0z" />
    <glyph glyph-name="uniE926" unicode="&#xe926;" 
d="M944 -85v0v0q-16 0 -30 6t-25 17l-211 213q-51 -36 -113.5 -56t-131.5 -20q-89 0 -168 34q-78 34 -136.5 92.5t-92.5 137.5q-34 78 -34 168q0 89 34 168t92.5 137.5t136.5 92.5q79 34 168 34q90 0 169 -34q78 -34 136.5 -92.5t92.5 -137.5t34 -168q0 -69 -20 -131.5
t-57 -114.5l212 -210q10 -10 16 -24.5t6 -30.5q0 -32 -22.5 -55t-55.5 -24v-2zM433 780q-57 0 -108 -22q-50 -21 -87 -58.5t-59 -87.5q-21 -50 -21 -107t21 -107q22 -50 59 -87.5t87 -58.5q51 -22 108 -22q56 0 107 22q50 21 87 58.5t59 87.5t22 107t-22 107t-59 87.5
t-87 58.5q-51 22 -107 22v0z" />
    <glyph glyph-name="uniE927" unicode="&#xe927;" 
d="M865 785q0 -21 -8 -36t-20 -15h-650q-12 0 -20 15t-8 36v102q0 22 8 37t20 15h645q12 0 20.5 -15t8.5 -37zM865 377q0 -22 -8 -37t-20 -15h-650q-12 0 -20 15t-8 37v102q0 21 8 36t20 15h645q12 0 20.5 -15t8.5 -36zM865 -34q0 -21 -8 -36t-20 -15h-650q-12 0 -20 15
t-8 36v102q0 22 8 36.5t20 14.5h645q12 0 20.5 -14.5t8.5 -36.5z" />
    <glyph glyph-name="uniE928" unicode="&#xe928;" 
d="M515 -67q-103 0 -193 39q-91 39 -158 106.5t-106 157.5q-39 91 -39 193q0 94 32 177q33 83 89.5 148.5t133.5 108.5q78 44 167 57v-131q-63 -13 -116 -45q-54 -33 -93.5 -81t-61.5 -107q-23 -60 -23 -127q0 -76 29 -143t79 -116.5t117 -78.5t143 -29t142 29
q67 29 117 78.5t79 116.5t29 143q0 67 -22 127q-23 59 -62.5 107t-92.5 81q-54 32 -117 45v131q90 -13 167 -57q77 -43 134 -108.5t89 -148.5q33 -83 33 -177q0 -102 -39 -193q-39 -90 -106.5 -157.5t-157.5 -106.5q-91 -39 -193 -39v0z" />
    <glyph glyph-name="uniE929" unicode="&#xe929;" 
d="M731 439l-333 203q-23 12 -45.5 -1t-22.5 -39v-393q0 -27 22.5 -40t45.5 0l333 191q23 13 23 39.5t-23 39.5v0zM981 405q0 98 -37 183q-36 86 -100 149.5t-149 100.5q-86 37 -183 37t-183 -37q-85 -37 -149 -100.5t-100 -149.5q-37 -85 -37 -183q0 -97 37 -182
q36 -86 100 -149.5t149 -100.5q86 -37 183 -37t183 37q85 37 149 100.5t100 149.5q37 85 37 182v0zM134 405q0 79 29 148q30 69 81.5 120t120.5 81t147 30t147 -30t120.5 -81t81.5 -120q29 -69 29 -148q0 -78 -29 -147q-30 -69 -81.5 -120.5t-120.5 -80.5q-69 -30 -147 -30
t-147 30q-69 29 -120.5 80.5t-81.5 120.5q-29 69 -29 147z" />
    <glyph glyph-name="uniE92A" unicode="&#xe92a;" 
d="M395 701l-142 -142h-163q-16 0 -27.5 -11.5t-11.5 -26.5v-231q0 -16 11.5 -27t27.5 -11h163l142 -143q18 -18 42 -8t24 36v537q0 26 -24 35.5t-42 -8.5v0zM769 783q-14 9 -29.5 5.5t-24.5 -16.5q-9 -14 -5.5 -29.5t16.5 -24.5q40 -26 71 -60q32 -35 53.5 -75t33.5 -85
q11 -45 11 -93q0 -47 -11 -92q-12 -45 -33.5 -85.5t-53.5 -74.5q-31 -35 -71 -61q-13 -8 -16.5 -24t5.5 -29q8 -13 24 -16.5t30 5.5q48 31 85 73q38 41 64.5 89.5t40.5 103.5q14 54 14 111q0 58 -14 112t-40.5 103t-64.5 90q-37 42 -85 73v0zM819 405q0 77 -36.5 143
t-100.5 107q-13 9 -29 5.5t-24 -17.5q-9 -13 -5.5 -28.5t17.5 -24.5q48 -30 74.5 -79t26.5 -106q0 -56 -26.5 -105t-74.5 -79q-14 -9 -17.5 -24.5t5.5 -29.5q8 -12 23.5 -16.5t29.5 4.5q64 42 100.5 108t36.5 142zM592 528q-14 8 -29 3.5t-23 -18.5q-7 -14 -3 -29t18 -23
q16 -8 25 -23t9 -33q0 -17 -9 -32t-25 -23q-14 -8 -18 -23.5t3 -29.5q8 -14 23.5 -18t28.5 3q34 19 54 52t20 71q0 39 -20 72t-54 51v0z" />
    <glyph glyph-name="uniE92B" unicode="&#xe92b;" 
d="M432 698l-221 -228q-5 -6 -15.5 -6t-22.5 6l-30 31l-84 98q-6 6 -6 16.5t6 22.5l30 30q6 6 16.5 6t22.5 -6l76 -76l167 175q12 6 22.5 6t15.5 -6l31 -30q5 -6 6 -12t1 -11l-4.5 -5t-10.5 -11v0v0zM965 74l-30 -30q-6 -6 -15.5 -6t-15.5 6v0v0l-68 68l-69 -68
q-6 -6 -15.5 -6t-14.5 6v0v0l-31 30q-6 6 -6 15.5t6 15.5l69 68l-69 69q-6 5 -6 14.5t6 15.5l31 31q5 5 14.5 5t15.5 -5v0v0l69 -69l68 69q6 5 15.5 5t15.5 -5v0v0l30 -31q6 -6 6 -15.5t-6 -14.5l-69 -69l69 -68q6 0 6 -9.5t-6 -21.5v0zM782 737l-571 -594q-11 -12 -11 -27
t11 -27v0q12 -11 27 -11t27 11l571 594q11 12 11 27t-11 27v0q-12 11 -27 11t-27 -11v0z" />
    </font>
</defs>
</svg>
